Today is a free download without charge Download

Паркер / Parker (Тейлор Хэкфорд) [2013.., США, Боевик, Триллер, Криминал, DVD5]

Reply to topic
 
Author
Message

Meshanik ®

Gender:

Longevity: 8 years 10 months

Posts: 3866

Location: Los Angeles

Торрент-статистика

Post 06-Jun-2013 05:43

[Quote]


Паркер / Parker
«To get away clean, you have to play dirty.»- Русское название: Паркер
Оригинальное название: Parker
Год выпуска: 2013
Производство: США
Жанр: Боевик, Триллер, Криминал
Продолжительность: 01:53:43
Перевод: Дублированный (Лицензия)
Субтитры: Отсутствуют-Режиссер: Тейлор Хэкфорд
Продюсер: Лес Александр, Стив Чэсмэн, Тейлор Хэкфорд
Актеры: Джейсон Стэйтем, Дженнифер Лопез, Майкл Чиклис, Бобби Каннавале, Ник Нолти, Уенделл Пирс, Клифтон Коллинз мл., Пэтти ЛюПон, Карлос Карраско, Мика А. Хауптман-Описание фильма:
Главный герой - профессиональный вор, руководствующийся собственным моральным кодексом, но способный запросто отправить на тот свет любого, кто перейдет ему дорогу.-Дата мировой премьеры: 12 октября 2012
Дата российской премьеры: 31 января 2013, «Централ Партнершип»
Дата выхода DVD релиза: 23 мая 2013, «CD Land»
Дата выхода Blu-Ray: 6 июня 2013, «CD Land»

Сэмпл: Скачать-Качество видео: DVD5
Видеокодек: MPEG-2
Битрейт видео: ~5312 Кбит/сек
Размер кадра: PAL 16:9 (720x576)
Audio: AC-3, 256 Кбит/сек, 6 каналов, 48,0 КГц - Русский дублированный
-Бонусы: Отсутствуют-

MediaInfo

Общее
Полное имя : Parker.2013.DVD5\VIDEO_TS\VTS_03_1.VOB
Формат : MPEG-PS
Размер файла : 1024 Мбайт
Продолжительность : 25 м.
Режим общего битрейта : Переменный
Общий поток : 5681 Кбит/сек
Видео
Идентификатор : 224 (0xE0)
Формат : MPEG Video
Версия формата : Version 2
Профиль формата : [email protected]
Параметр BVOP формата : Да
Параметр матрицы формата : Выборочная
Параметр GOP формата : Variable
Продолжительность : 25 м.
Вид битрейта : Переменный
Битрейт : 5312 Кбит/сек
Максимальный битрейт : 9000 Кбит/сек
Ширина : 720 пикселей
Высота : 576 пикселей
Соотношение сторон : 16:9
Частота кадров : 25,000 кадров/сек
Стандарт вещания : PAL
Цветовое пространство : YUV
Субдискретизация насыщенности : 4:2:0
Битовая глубина : 8 бит
Тип развёртки : Чересстрочная
Порядок развёртки : Верхнее поле первое
Метод сжатия : С потерями
Бит/(Пиксели*Кадры) : 0.512
TimeCode_FirstFrame : 00:00:00:00
TimeCode_Source : Group of pictures header
Размер потока : 957 Мбайт (94%)
Аудио
Идентификатор : 189 (0xBD)-128 (0x80)
Формат : AC-3
Формат/Информация : Audio Coding 3
Расширение режима : CM (complete main)
Параметр Endianness формата : Big
Режим смешивания : DVD-Video
Продолжительность : 25 м.
Вид битрейта : Постоянный
Битрейт : 256 Кбит/сек
Каналы : 6 каналов
Расположение каналов : Front: L C R, Side: L R, LFE
Частота : 48,0 КГц
Битовая глубина : 16 бит
Метод сжатия : С потерями
Размер потока : 46,1 Мбайт (5%)
Меню

DVDInfo

Title: Parker.2013.DVD5
Size: 4.34 Gb ( 4 548 646,00 KBytes ) - DVD-5
Enabled regions: 1, 2, 3, 4, 5, 6, 7, 8
VTS_01 :
Play Length: 00:00:19
Video: PAL 16:9 (720x576) VBR, Auto Pan&Scan, Auto Letterboxed
Audio:
  • Not specified (Dolby AC3, 2 ch)
    VTS_02 :
    Play Length: 00:00:15
    Video: PAL 16:9 (720x576) VBR, Auto Pan&Scan, Auto Letterboxed
    Audio:
  • Not specified (Dolby AC3, 2 ch)
    VTS_03 :
    Play Length: 01:53:43
    Video: PAL 16:9 (720x576) VBR, Auto Letterboxed
    Audio:
  • Not specified (Dolby AC3, 6 ch)
    * Menus Information *
    VIDEO_TS Menu
    Video:
  • PAL 16:9 (720x576) VBR
  • Auto Pan&Scan, Auto Letterboxed
    Russian Language Unit :
  • Title Menu
    VTS_01 Menu
    Video:
  • PAL 16:9 (720x576) VBR
  • Auto Pan&Scan, Auto Letterboxed
    Audio:
  • Not specified (Dolby AC3, 5 ch)
    Russian Language Unit :
  • Root Menu
    VTS_02 Menu
    Video:
  • PAL 4:3 (720x576) VBR
    Russian Language Unit :
  • Root Menu
    VTS_03 Menu
    Video:
  • PAL 4:3 (720x576) VBR
    Russian Language Unit :
  • Root Menu

DVD меню

   

Изготовление релиза

Исходник: Паркер / Parker (2013) DVD9. Спасибо Shuran80
Видео сжато на 40% (DVD Rebuilder v1.28.2 + CCE SP2 1.00.01.09 [7 проходов])

Log-файл DVD-RB

[12:30:35] Phase I, PREPARATION started.
- DVD-RB v1.28.2
- AVISYNTH 2.5.6.0
- CCE 1.0.1.9 encoder selected.
- Source: PARKER.2013.D.DVD9
- VTS_03: 3 496 622 sectors.
-- Scanning and writing .D2V & .AVS files
-- Processed 170 586 frames.
-- Building .AVS and .ECL files
- Reduction Level for DVD-5: 61,0%
- Overall Bitrate : 4 942Kbs
- Space for Video : 4 116 800KB
- HIGH/LOW/TYPICAL Bitrates: 5 255/4 390/4 942 Kbs
[12:34:18] Phase I, PREPARATION completed in 4 minutes.
[12:34:18] Phase II ENCODING started
- Creating M2V for VTS_03 segment 0
- Creating M2V for VTS_03 segment 1
- Creating M2V for VTS_03 segment 2
- Creating M2V for VTS_03 segment 3
- Creating M2V for VTS_03 segment 4
- Creating M2V for VTS_03 segment 5
- Creating M2V for VTS_03 segment 6
- Creating M2V for VTS_03 segment 7
[16:36:41] Phase II ENCODING completed in 242 minutes.
[16:36:41] Phase III, REBUILD started.
- Copying IFO, BUP, and unaltered files...
- Processing VTS_03
- Reading/processing TMAP table...
- Rebuilding seg 0 VOBID 1 CELLID 1
- Rebuilding seg 1 VOBID 1 CELLID 2
- Rebuilding seg 2 VOBID 1 CELLID 3
- Rebuilding seg 3 VOBID 1 CELLID 4
- Rebuilding seg 4 VOBID 1 CELLID 5
- Rebuilding seg 5 VOBID 1 CELLID 6
- Rebuilding seg 6 VOBID 1 CELLID 7
- Rebuilding seg 7 VOBID 1 CELLID 8
- Updating NAVPACKS for VOBID_01
- Updated VTS_C_ADT.
- Updated VTS_VOBU_ADMAP.
- Updated IFO: VTS_03_0.IFO
- Updating TMAP table...
- Correcting VTS Sectors...
[16:50:13] Phase III, REBUILD completed in 14 minutes.
Done.
[16:50:13] PREPARE/ENCODE/REBUILD completed in 260 min.
Скриншоты:
       
       
Время раздачи: По мере возможности
Other forum [Profile] [PM]

Dracula

Longevity: 7 years 6 months

Posts: 11224

Торрент-статистика

Post 02-Jan-2014 15:52 (after 6 months 26 days)

Топик был перенесен из форума Новинки (DVD, HD Video) в форум Зарубежное кино (HD Video)


kogesan
 
Display posts from previous:    
Reply to topic

The time now is: Today 19:41

All times are GMT + 3 Hours



You cannot post new topics in this forum
You cannot reply to topics in this forum
You cannot edit your posts in this forum
You cannot delete your posts in this forum
You cannot vote in polls in this forum
You cannot attach files in this forum
You cannot download files in this forum