Today is a free download without charge Download

На гребне волны / Point Break (Кэтрин Бигелоу) [1991 г., боевик, триллер, криминал, BDRip1080p]

Reply to topic
 
Author
Message

Delia ®

Gender:

Longevity: 9 years 6 months

Posts: 1821

Торрент-статистика

Post 13-Aug-2011 15:26

[Quote]

На гребне волныPoint Break Год выпуска: 1991
Страна: США, Япония
Жанр: боевик, триллер, криминал
Продолжительность: 02:02:05
Перевод: Профессиональный (многоголосый, закадровый)
Режиссер: Кэтрин Бигелоу
Продюссер: Питер Абрамс, Джеймс Кэмерон, Рик Кинг
Сценарий: Рик Кинг, В. Питер Айлифф
Бюджет: $24 000 000
Премьера в мире: 12 июля 1991
В ролях: Патрик Суэйзи, Киану Ривз, Гэри Бьюзи, Лори Петти, Джон К. МакГинли, Джеймс ЛеГро, Джон Филбин, Боджесси Кристофер, Джулиан Рейес, Дэниэл Бир
Описание: Таинственная банда серфингистов, среди белого дня, совершает ограбления банков. Полиция и ФБР поражены профессиональностью и скоростью проведения преступлений.Следствие ведет молодой и претенциозный агент ФБР, который, рискуя жизнью, внедряется в банду и раскрывает это дело, но неожиданно для самого себя он осознает, что вернуться к нормальной жизни он уже не сможет.
Качество: BDRip1080p
Формат: MKV
Видео кодек: H.264
Аудио кодек: AC3
Видео: English, 12,1 Мбит/сек, 1920*816 (2,35:1), в 23,976 кадр/сек, AVC ([email protected])
Аудио: Russian, 448 Кбит/сек, 48,0 КГц, 16 бит, 6 канала(ов), AC-3
Аудио:English, 320 Кбит/сек, 48,0 КГц, 16 бит, 6 канала(ов), AC-3
Дополнительно отдельными файлами :
авторский одноголосный перевод А.Багичева
авторский одноголосный перевод А.Гаврилова
авторский одноголосный перевод Ю.Живова
авторский двухголосный перевод П.Гланц и И.Королевой (DTS)
Аудио №1-3: 48 kHz, AC3 Dolby Digital, 3/2 (L,C,R,l,r) + LFE ch, ~448.00 kbps avg
Аудио №4:1510 Кбит/сек, 48,0 КГц, 24 бит, 6 канала(ов), DTS
Субтитры: Russian,English - VobSub

MI:

Общее
Уникальный идентификатор : 244323459224281044463264284583105191420 (0xB7CEFC935DC779648BDE6C5B11F4DDFC)
Полное имя : F:\торрент\Na.grebne.volny.1991.BDRip1080p\Na.grebne.volny.1991.BDRip1080p.mkv
Формат : Matroska
Размер файла : 11,0 Гбайт
Продолжительность : 2 ч. 2 м.
Общий поток : 12,9 Мбит/сек
Дата кодирования : UTC 2011-08-13 10:58:23
Программа кодирования : mkvmerge v4.9.1 ('Ich will') built on Jul 11 2011 23:53:15
Библиотека кодирования : libebml v1.2.1 + libmatroska v1.1.1
Видео
Идентификатор : 1
Формат : AVC
Формат/Информация : Advanced Video Codec
Профиль формата : [email protected]
Параметр CABAC формата : Да
Параметр ReFrames формата : 5 кадры
Идентификатор кодека : V_MPEG4/ISO/AVC
Продолжительность : 2 ч. 2 м.
Битрейт : 12,1 Мбит/сек
Ширина : 1920 пикс.
Высота : 816 пикс.
Соотношение сторон : 2,35:1
Частота кадров : 23,976 кадр/сек
Цветовое пространство : YUV
Подвыборка цветности : 4:2:0
Битовая глубина : 8 бит
Тип развёртки : Прогрессивная
Бит/(Пиксели*Кадры) : 0.322
Размер потока : 10,1 Гбайт (92%)
Библиотека кодирования : x264 core 116 r2044 392e762
Настройки программы : cabac=1 / ref=5 / deblock=1:-3:-3 / analyse=0x3:0x133 / me=umh / subme=8 / psy=1 / psy_rd=1.00:0.15 / mixed_ref=1 / me_range=32 / chroma_me=1 / trellis=2 / 8x8dct=1 / cqm=0 / deadzone=21,11 / fast_pskip=0 / chroma_qp_offset=-3 / threads=6 / sliced_threads=0 / nr=0 / decimate=1 / interlaced=0 / bluray_compat=0 / constrained_intra=0 / bframes=4 / b_pyramid=2 / b_adapt=2 / b_bias=0 / direct=3 / weightb=1 / open_gop=0 / weightp=2 / keyint=250 / keyint_min=23 / scenecut=40 / intra_refresh=0 / rc_lookahead=60 / rc=2pass / mbtree=1 / bitrate=12079 / ratetol=1.0 / qcomp=0.80 / qpmin=10 / qpmax=51 / qpstep=4 / cplxblur=20.0 / qblur=0.5 / ip_ratio=1.40 / aq=1:1.00
Язык : English
Аудио #1
Идентификатор : 2
Формат : AC-3
Формат/Информация : Audio Coding 3
Расширение режима : CM (complete main)
Идентификатор кодека : A_AC3
Продолжительность : 2 ч. 2 м.
Вид битрейта : Постоянный
Битрейт : 448 Кбит/сек
Канал(ы) : 6 канала(ов)
Расположение каналов : Front: L C R, Side: L R, LFE
Частота : 48,0 КГц
Битовая глубина : 16 бит
Метод сжатия : С потерями
Размер потока : 391 Мбайт (3%)
Язык : Russian
Аудио #2
Идентификатор : 3
Формат : AC-3
Формат/Информация : Audio Coding 3
Расширение режима : CM (complete main)
Идентификатор кодека : A_AC3
Продолжительность : 2 ч. 2 м.
Вид битрейта : Постоянный
Битрейт : 320 Кбит/сек
Канал(ы) : 6 канала(ов)
Расположение каналов : Front: L C R, Side: L R, LFE
Частота : 48,0 КГц
Битовая глубина : 16 бит
Метод сжатия : С потерями
Размер потока : 279 Мбайт (2%)
Язык : English
Текст #1
Идентификатор : 4
Формат : VobSub
Режим смешивания : zlib
Идентификатор кодека : S_VOBSUB
Идентификатор кодека/Информация : The same subtitle format used on DVDs
Язык : Russian
Текст #2
Идентификатор : 5
Формат : VobSub
Режим смешивания : zlib
Идентификатор кодека : S_VOBSUB
Идентификатор кодека/Информация : The same subtitle format used on DVDs
Язык : English
Меню
00:00:00.000 : en:00:00:00.000
00:03:08.188 : en:00:03:08.188
00:06:18.336 : en:00:06:18.336
00:09:38.161 : en:00:09:38.161
00:13:25.221 : en:00:13:25.221
00:16:44.128 : en:00:16:44.128
00:20:59.008 : en:00:20:59.008
00:24:04.735 : en:00:24:04.735
00:27:35.946 : en:00:27:35.946
00:31:05.822 : en:00:31:05.822
00:39:00.588 : en:00:39:00.588
00:43:33.694 : en:00:43:33.694
00:49:32.887 : en:00:49:32.887
00:58:36.221 : en:00:58:36.221
01:02:16.566 : en:01:02:16.566
01:10:29.559 : en:01:10:29.559
01:16:42.223 : en:01:16:42.223
01:23:43.477 : en:01:23:43.477
01:27:15.939 : en:01:27:15.939
01:34:51.311 : en:01:34:51.311
01:41:14.277 : en:01:41:14.277
01:50:13.690 : en:01:50:13.690
01:55:20.956 : en:01:55:20.956
01:58:36.443 : en:01:58:36.443

Скриншоты

               

_________________
Человек – это канат, натянутый между животным и сверхчеловеком, – канат над пропастью.
В человеке ценно то, что он мост, а не цель. Фридрих Ницше


Last edited by Delia on 2011-08-14 23:17; edited 1 time in total
Other forum [Profile] [PM]
Display posts from previous:    
Reply to topic

The time now is: Today 18:30

All times are GMT + 3 Hours



You cannot post new topics in this forum
You cannot reply to topics in this forum
You cannot edit your posts in this forum
You cannot delete your posts in this forum
You cannot vote in polls in this forum
You cannot attach files in this forum
You cannot download files in this forum