Today is a free download without charge Download

Охотники на ведьм / Hansel & Gretel: Witch Hunters (Томми Виркола / Tommy Wirkola) [2012, США, Германия, ужасы, фэнтези, боевик, BDRip 720p] [Theatrical Cut] Dub + VO (Daniel Jackson) + Sub Rus,Eng + Original Eng

Reply to topic
 
Author
Message

Omen ®

Longevity: 8 years 5 months

Posts: 181087

Торрент-статистика

Post 06-Jun-2013 00:30

[Quote]

Охотники на ведьм / Hansel & Gretel: Witch Hunters Страна: США, Германия
Студия: Metro-Goldwyn-Mayer (MGM), Paramount Pictures
Жанр: ужасы, фэнтези, боевик
Год выпуска: 2012
Продолжительность: 01:27:56
Перевод 1: Профессиональный (дублированный) Blu-ray CEE
Перевод 2: Одноголосый (закадровый) Daniel Jackson
Cубтитры: Russian (Blu-ray CEE,voronine), Ukrainian (Blu-ray CEE), English
Оригинальная аудиодорожка: английский
Режиссер: Томми Виркола / Tommy Wirkola
В ролях: Джереми Реннер, Джемма Артертон, Фамке Янссен, Зои Белл, Петер Стормаре, Томас Манн, Ингрид Болсай Бердал, Робин Аткин Даунс, Дерек Мирс, Моник Гэндертон
Описание: Едва не погибнув в лапах ужасной ведьмы, Гензель и Гретель стали только сильнее. Одержимые местью, они ведут отчаянную борьбу со злом, даже не подозревая, что их поджидает нечто куда более опасное… собственное прошлое…

Тип релиза: BDRip 720p[IRONCLUB]
Контейнер: MKV
Видео: AVC, 1280x534,5529 Kbps, 23.976 fps
Аудио 1: Russian: 48 kHz, AC3, 3/2 (L,C,R,l,r) + LFE ch, ~640.00 kbps avg |Blu-ray CEE|
Аудио 2: Russian: 48 kHz, AC3, 3/2 (L,C,R,l,r) + LFE ch, ~448.00 kbps avg |Daniel Jackson|
Аудио 3: English: 48 kHz, AC3, 3/2 (L,C,R,l,r) + LFE ch, ~640.00 kbps avg|Original
Чаптеры:есть

x264 log

x264 [info]: frame I:1393 Avg QP:14.18 size:150763
x264 [info]: frame P:31941 Avg QP:17.11 size: 50401
x264 [info]: frame B:93174 Avg QP:18.75 size: 20553
x264 [info]: consecutive B-frames: 4.9% 3.8% 10.0% 26.1% 21.2% 27.4% 3.8% 1.3% 0.7% 0.8%

Доп.информация

За диск спасибо

MediaInfo

General
Unique ID : 203498736938437801315813510847377784655 (0x99186E5D52486B8E9A13A064A68D3F4F)
Complete name : D:\Hansel.&.Gretel.Witch. Hunters.2013.720p.BluRay.DD5.1 x264-Talian-.mkv
Format : Matroska
Format version : Version 2
File size : 4.54 GiB
Duration : 1h 27mn
Overall bit rate : 7 392 Kbps
Movie name : -Talian-
Encoded date : UTC 2013-06-05 20:25:16
Writing application : mkvmerge v5.7.0 ('The Whirlwind') built on Jul 8 2012 20:08:51
Writing library : libebml v1.2.3 + libmatroska v1.3.0
Video
ID : 1
Format : AVC
Format/Info : Advanced Video Codec
Format profile : [email protected]
Format settings, CABAC : Yes
Format settings, ReFrames : 12 frames
Codec ID : V_MPEG4/ISO/AVC
Duration : 1h 27mn
Bit rate : 5 517 Kbps
Width : 1 280 pixels
Height : 534 pixels
Display aspect ratio : 2.40:1
Frame rate : 23.976 fps
Color space : YUV
Chroma subsampling : 4:2:0
Bit depth : 8 bits
Scan type : Progressive
Bits/(Pixel*Frame) : 0.337
Stream size : 3.39 GiB (75%)
Title : IRONCLUB
Writing library : x264 core 132 r2309kMod 3b1f1f7
Encoding settings : cabac=1 / ref=12 / deblock=1:-3:-3 / analyse=0x3:0x113 / me=umh / subme=11 / psy=1 / fade_compensate=0.00 / psy_rd=1.05:0.00 / mixed_ref=1 / me_range=48 / chroma_me=1 / trellis=2 / 8x8dct=1 / cqm=0 / deadzone=21,11 / fast_pskip=0 / chroma_qp_offset=-2 / threads=12 / lookahead_threads=2 / sliced_threads=0 / nr=0 / decimate=1 / interlaced=0 / bluray_compat=0 / constrained_intra=0 / bframes=9 / b_pyramid=2 / b_adapt=2 / b_bias=0 / direct=3 / weightb=1 / open_gop=0 / weightp=2 / keyint=250 / keyint_min=23 / scenecut=40 / intra_refresh=0 / rc_lookahead=60 / rc=crf / mbtree=1 / crf=17.0000 / qcomp=0.80 / qpmin=0 / qpmax=69 / qpstep=4 / vbv_maxrate=50000 / vbv_bufsize=62500 / crf_max=0.0 / nal_hrd=none / ip_ratio=1.30 / aq=1:0.85
Language : English
Default : No
Forced : No
Matrix coefficients : BT.709-5, BT.1361, IEC 61966-2-4 709, SMPTE RP177
Audio #1
ID : 2
Format : AC-3
Format/Info : Audio Coding 3
Mode extension : CM (complete main)
Format settings, Endianness : Big
Codec ID : A_AC3
Duration : 1h 27mn
Bit rate mode : Constant
Bit rate : 640 Kbps
Channel(s) : 6 channels
Channel positions : Front: L C R, Side: L R, LFE
Sampling rate : 48.0 KHz
Bit depth : 16 bits
Compression mode : Lossy
Stream size : 403 MiB (9%)
Title : DUB-Blu-ray CEE
Language : Russian
Default : Yes
Forced : No
Audio #2
ID : 3
Format : AC-3
Format/Info : Audio Coding 3
Mode extension : CM (complete main)
Format settings, Endianness : Big
Codec ID : A_AC3
Duration : 1h 27mn
Bit rate mode : Constant
Bit rate : 448 Kbps
Channel(s) : 6 channels
Channel positions : Front: L C R, Side: L R, LFE
Sampling rate : 48.0 KHz
Bit depth : 16 bits
Compression mode : Lossy
Stream size : 282 MiB (6%)
Title : VO-Daniel Jackson
Language : Russian
Default : No
Forced : No
Audio #3
ID : 4
Format : AC-3
Format/Info : Audio Coding 3
Mode extension : CM (complete main)
Format settings, Endianness : Big
Codec ID : A_AC3
Duration : 1h 27mn
Bit rate mode : Constant
Bit rate : 640 Kbps
Channel(s) : 6 channels
Channel positions : Front: L C R, Side: L R, LFE
Sampling rate : 48.0 KHz
Bit depth : 16 bits
Compression mode : Lossy
Stream size : 403 MiB (9%)
Title : Original
Language : English
Default : No
Forced : No
Text #1
ID : 5
Format : UTF-8
Codec ID : S_TEXT/UTF8
Codec ID/Info : UTF-8 Plain Text
Title : Sub-Blu-ray CEE
Language : Russian
Default : No
Forced : No
Text #2
ID : 6
Format : UTF-8
Codec ID : S_TEXT/UTF8
Codec ID/Info : UTF-8 Plain Text
Title : Sub-voronine
Language : Russian
Default : No
Forced : No
Text #3
ID : 7
Format : UTF-8
Codec ID : S_TEXT/UTF8
Codec ID/Info : UTF-8 Plain Text
Title : Sub-Blu-ray CEE
Language : Ukrainian
Default : No
Forced : No
Text #4
ID : 8
Format : UTF-8
Codec ID : S_TEXT/UTF8
Codec ID/Info : UTF-8 Plain Text
Title : Sub
Language : English
Default : No
Forced : No
Menu
00:00:00.000 : en:00:00:00.000
00:08:56.827 : en:00:08:56.827
00:15:57.790 : en:00:15:57.790
00:24:07.112 : en:00:24:07.112
00:32:17.936 : en:00:32:17.936
00:40:12.868 : en:00:40:12.868
00:46:45.636 : en:00:46:45.636
00:52:22.097 : en:00:52:22.097
01:00:20.033 : en:01:00:20.033
01:05:05.651 : en:01:05:05.651
01:12:49.656 : en:01:12:49.656
01:19:01.820 : en:01:19:01.820

Скриншоты



Other forum [Profile] [PM]
Similar theme
Forum Topic Author Torrent Replies Last Post
./templates/default/images/folder_dl.gif Приключения и квесты Mystery Trackers: Blackrow\'s Secret Collector\'s Edition / Охотники за тайнами. Загадка рода Блэкроу. Коллекционное издание [P] [RUS / ENG] (2014) Omen
1 | 0

0 | 2621

27

2015-06-06 00:09
Omen Latest
./templates/default/images/folder_dl.gif Разножанровые коллекции книг и библиотеки Хайдарали Усманов | Цикл «Охотник» [11 книг] (2018-2019) [FB2] }{@R0N
1 | 0

0 | 904

0

2019-06-19 17:37
}{@R0N Latest
Display posts from previous:    
Reply to topic

The time now is: Today 12:16

All times are GMT + 3 Hours



You cannot post new topics in this forum
You cannot reply to topics in this forum
You cannot edit your posts in this forum
You cannot delete your posts in this forum
You cannot vote in polls in this forum
You cannot attach files in this forum
You cannot download files in this forum