Today is a free download without charge Download

Ханна и ее сестры / Hannah and Her Sisters (Вуди Аллен / Woody Allen) [1986, США, драма, комедия, BDRemux 1080p] MVO + 2xAVO (Сербин, Михалев) + Sub Eng + Original Eng

Reply to topic
 
Author
Message

Omen ®

Longevity: 8 years 5 months

Posts: 181087

Торрент-статистика

Post 06-Jun-2013 00:30

[Quote]

-Ханна и ее сестры / Hannah and Her Sisters- Страна: США
Жанр: драма, комедия
Год выпуска: 1986
Продолжительность: 01:46:55-Перевод: Профессиональный (многоголосый закадровый)
Перевод 2: Авторский (одноголосый закадровый) Юрий Сербин
Перевод 3: Авторский (одноголосый закадровый) Алексей Михалев
Cубтитры: английские
Оригинальная аудиодорожка: английский-Режиссер: Вуди Аллен / Woody Allen
В ролях: Миа Фэрроу, Барбара Херши, Дайэнн Уист, Майкл Кейн, Вуди Аллен, Кэрри Фишер, Морин О’Салливан, Ллойд Нолан, Макс фон Сюдов, Дэниел Стерн-Описание: Главные героини — три сестры: Ханна, Ли и Холли. Ханна — знаменитая актриса, образцовая мать, прекрасная сестра, умная, интеллигентная и просто очень красивая женщина; Ли — любовница Фредерика, старого дряхлого художника и мизантропа; Холли мечтает стать актрисой, писательницей и еще бог знает кем…
Все начинает рушиться, когда муж Ханны Элиот неожиданно осознает, что он безумно влюблен в Ли. Ли бросает своего пожилого любовника. Холли в очередной раз переживает нервный срыв, во время которого встречает Микки — меланхоличного телепродюсера и бывшего мужа Ханны. Обстановка накаляется до предела в День Благодарения, когда все собираются вместе.-Доп. информация: За русский звук спасибо Core_soul-Сэмпл: http://yadi.sk/d/qDQFGNDG5Xx2T-Тип релиза: BDRemux 1080p
Контейнер: MKV
Видео: MPEG-4 AVC Video 25997 kbps 1080p / 23.976 fps / 16:9 / High Profile 4.1
Аудио: Dolby Digital Audio Russian 2.0 / 48 kHz / 192 kbps | Многоголосый закадровый
Аудио 2: Dolby Digital Audio Russian 2.0 / 48 kHz / 192 kbps | Ю.Сербин
Аудио 3: Dolby Digital Audio Russian 2.0 / 48 kHz / 192 kbps | А.Михалев
Аудио 4: DTS-HD Master Audio English 1060 kbps 1.0 / 48 kHz / 1060 kbps / 24-bit (DTS Core: 1.0 / 48 kHz / 768 kbps / 24-bit)
Формат субтитров: softsub (SRT)

MI

Код:
General
Complete name                    : V:\Фильмы\Вуди Аллен\Ханна и ее сестры (1986. Hannah and Her Sisters)..mkv
Format                           : Matroska
File size                        : 20.5 GiB
Duration                         : 1h 46mn
Overall bit rate                 : 27.4 Mbps
Movie name                       : Hannah and Her Sisters (1986) Release for RuTracker
Encoded date                     : UTC 2013-06-05 18:39:50
Writing application              : mkvmerge v4.9.1 ('Ich will') сборка от Jul 11 2011 23:53:15
Writing library                  : libebml v1.2.1 + libmatroska v1.1.1
Video
ID                               : 1
Format                           : AVC
Format/Info                      : Advanced Video Codec
Format profile                   : [email protected]
Format settings, CABAC           : Yes
Format settings, ReFrames        : 4 frames
Muxing mode                      : Container [email protected]
Codec ID                         : V_MPEG4/ISO/AVC
Duration                         : 1h 46mn
Bit rate mode                    : Variable
Maximum bit rate                 : 38.0 Mbps
Width                            : 1 920 pixels
Height                           : 1 080 pixels
Display aspect ratio             : 16:9
Frame rate                       : 23.976 fps
Color space                      : YUV
Chroma subsampling               : 4:2:0
Bit depth                        : 8 bits
Scan type                        : Progressive
Title                            : HANNAH_AND_HER_SISTERS_v99
Language                         : English
Audio #1
ID                               : 2
Format                           : AC-3
Format/Info                      : Audio Coding 3
Mode extension                   : CM (complete main)
Codec ID                         : A_AC3
Duration                         : 1h 46mn
Bit rate mode                    : Constant
Bit rate                         : 192 Kbps
Channel(s)                       : 2 channels
Channel positions                : Front: L R
Sampling rate                    : 48.0 KHz
Bit depth                        : 16 bits
Stream size                      : 147 MiB (1%)
Title                            : MVO
Language                         : Russian
Audio #2
ID                               : 3
Format                           : AC-3
Format/Info                      : Audio Coding 3
Mode extension                   : CM (complete main)
Codec ID                         : A_AC3
Duration                         : 1h 46mn
Bit rate mode                    : Constant
Bit rate                         : 192 Kbps
Channel(s)                       : 2 channels
Channel positions                : Front: L R
Sampling rate                    : 48.0 KHz
Bit depth                        : 16 bits
Stream size                      : 147 MiB (1%)
Title                            : Юрий Сербин
Language                         : Russian
Audio #3
ID                               : 4
Format                           : AC-3
Format/Info                      : Audio Coding 3
Mode extension                   : CM (complete main)
Codec ID                         : A_AC3
Duration                         : 1h 46mn
Bit rate mode                    : Constant
Bit rate                         : 192 Kbps
Channel(s)                       : 2 channels
Channel positions                : Front: L R
Sampling rate                    : 48.0 KHz
Bit depth                        : 16 bits
Stream size                      : 147 MiB (1%)
Title                            : Алексей Михалев
Language                         : Russian
Audio #4
ID                               : 5
Format                           : DTS
Format/Info                      : Digital Theater Systems
Format profile                   : MA
Codec ID                         : A_DTS
Duration                         : 1h 46mn
Bit rate mode                    : Variable
Channel(s)                       : 1 channel
Channel positions                : Front: C
Sampling rate                    : 48.0 KHz
Bit depth                        : 24 bits
Language                         : English
Text #1
ID                               : 6
Format                           : UTF-8
Codec ID                         : S_TEXT/UTF8
Codec ID/Info                    : UTF-8 Plain Text
Language                         : English
Text #2
ID                               : 7
Format                           : UTF-8
Codec ID                         : S_TEXT/UTF8
Codec ID/Info                    : UTF-8 Plain Text
Title                            : SDH
Language                         : English
Menu
00:00:00.000                     : en:01. So Beautiful
00:08:57.453                     : en:02. Frederick & the World
00:11:27.186                     : en:03. "The Hypochondriac"
00:18:31.401                     : en:04. Stanislavski Catering
00:23:59.354                     : en:05. Page 112
00:29:00.447                     : en:06. "We Need Some Sperm"
00:36:47.455                     : en:07. "...In Love With You"
00:47:45.112                     : en:08. "The Abyss"
00:59:37.865                     : en:09. Stupid Life Theories
01:04:51.304                     : en:10. "Afternoons"
01:07:58.741                     : en:11. "The Audition"
01:12:46.195                     : en:12. "The Big Leap"
01:19:58.376                     : en:13. "Summer in New York"
01:22:08.590                     : en:14. "Autumn Chill"
01:30:33.177                     : en:15. "Lucky I Ran Into You"
01:39:41.642                     : en:16. "One Year Later"

Скриншоты


Other forum [Profile] [PM]
Display posts from previous:    
Reply to topic

The time now is: Today 06:01

All times are GMT + 3 Hours



You cannot post new topics in this forum
You cannot reply to topics in this forum
You cannot edit your posts in this forum
You cannot delete your posts in this forum
You cannot vote in polls in this forum
You cannot attach files in this forum
You cannot download files in this forum