Today is a free download without charge Download

Место под соснами / The Place Beyond the Pines ( Дерек Сиенфрэнс ) (2012, Драма, Криминал ) DVD9

Reply to topic
 
Author
Message

Витек1 ®

Gender:

Longevity: 8 years 3 months

Posts: 451

Location: Житомир

Торрент-статистика

Post 05-Jun-2013 19:49

[Quote]

Место под соснами / The Place Beyond the Pines - Русское название: Место под соснами
Оригинальное название: The Place Beyond the Pines
Год выпуска: 2012
Производство: США
Жанр: Драма, Криминал
Перевод: Дублированный (Лицензия)
Субтитры: Вшитые отключаемые
Язык субтитров: Русский
Режиссер: Дерек Сиенфрэнс
Актеры: Брэдли Купер, Райан Гослинг, Ева Мендес, Бен Мендельсон, Роуз Бирн, Махершалалхашбаз Али, Дэйн ДеХаан, Эмори Коэн, Рэй Лиотта, Харрис Юлин
Описание фильма:
История профессионального мотогонщика, который начинает грабить банки, чтобы содержать новорожденного сына. Однажды на его пути встает полицейский, и столкновение парней перерастает в личную войну.
Дата мировой премьеры: 7 сентября 2012
Дата российской премьеры: 18 апреля 2013, «Каравелла DDC»
Дата выхода DVD релиза: 5 июня 2013, «Кармен Видео», «ВС трейд»

Продолжительность: 02:14:36
Качество видео: DVD9
Видеокодек: MPEG-2
Битрейт видео: ~5772 kbps
Размер кадра: PAL 16:9 ([email protected]х576)
Аудио 1: AC3, 6 ch, 384 kbps (Дублированный, Русский)
Аудио 2: AC3, 2 ch, 192 kbps (Дублированный, Русский)
Аудио 3: AC3, 6 ch, 384 kbps (Оригинал, Английский)
Дополнительно: Комментарии режиссера, Новинки видео

MediaInfo:

Общее
Полное имя : Mesto.pod.sosnami.2012.DVD9\VIDEO_TS\VTS_01_1.VOB
Формат : MPEG-PS
Размер файла : 1024 Мбайт
Продолжительность : 20 м.
Режим общего битрейта : Переменный
Общий поток : 6869 Кбит/сек
Видео
Идентификатор : 224 (0xE0)
Формат : MPEG Video
Версия формата : Version 2
Профиль формата : [email protected]
Параметр BVOP формата : Да
Параметр матрицы формата : Выборочная
Параметр GOP формата : M=3, N=15
Продолжительность : 20 м.
Вид битрейта : Переменный
Битрейт : 5772 Кбит/сек
Ширина : 720 пикселей
Высота : 576 пикселей
Соотношение сторон : 16:9
Частота кадров : 25,000 кадров/сек
Стандарт вещания : PAL
Цветовое пространство : YUV
Субдискретизация насыщенности : 4:2:0
Битовая глубина : 8 бит
Тип развёртки : Чересстрочная
Метод сжатия : С потерями
Бит/(Пиксели*Кадры) : 0.557
TimeCode_FirstFrame : 00:00:00:00
TimeCode_Source : Group of pictures header
Размер потока : 860 Мбайт (84%)
Аудио #1
Идентификатор : 189 (0xBD)-128 (0x80)
Формат : AC-3
Формат/Информация : Audio Coding 3
Расширение режима : CM (complete main)
Параметр Endianness формата : Big
Режим смешивания : DVD-Video
Продолжительность : 20 м.
Вид битрейта : Постоянный
Битрейт : 384 Кбит/сек
Каналы : 6 каналов
Расположение каналов : Front: L C R, Side: L R, LFE
Частота : 48,0 КГц
Битовая глубина : 16 бит
Метод сжатия : С потерями
Размер потока : 57,2 Мбайт (6%)
Аудио #2
Идентификатор : 189 (0xBD)-129 (0x81)
Формат : AC-3
Формат/Информация : Audio Coding 3
Расширение режима : CM (complete main)
Параметр Endianness формата : Big
Режим смешивания : DVD-Video
Продолжительность : 20 м.
Вид битрейта : Постоянный
Битрейт : 192 Кбит/сек
Каналы : 2 канала
Расположение каналов : Front: L R
Частота : 48,0 КГц
Битовая глубина : 16 бит
Метод сжатия : С потерями
Размер потока : 28,6 Мбайт (3%)
Аудио #3
Идентификатор : 189 (0xBD)-130 (0x82)
Формат : AC-3
Формат/Информация : Audio Coding 3
Расширение режима : CM (complete main)
Параметр Endianness формата : Big
Режим смешивания : DVD-Video
Продолжительность : 20 м.
Вид битрейта : Постоянный
Битрейт : 384 Кбит/сек
Каналы : 6 каналов
Расположение каналов : Front: L C R, Side: L R, LFE
Частота : 48,0 КГц
Битовая глубина : 16 бит
Метод сжатия : С потерями
Размер потока : 57,2 Мбайт (6%)
Текст
Идентификатор : 189 (0xBD)-32 (0x20)
Формат : RLE
Формат/Информация : Run-length encoding
Режим смешивания : DVD-Video
Продолжительность : 20 м.
Меню

DVDInfo:

Title: Mesto.pod.sosnami.2012.DVD9
Size: 7.05 Gb ( 7 392 464,00 KBytes ) - DVD-9
Enabled regions: 1, 2, 3, 4, 5, 6, 7, 8
VTS_01 :
Play Length: 00:00:01+02:14:36+00:00:01
Video: PAL 16:9 (720x576) VBR, Auto Letterboxed
Audio:
  • Russian (Dolby AC3, 6 ch)
  • Russian (Dolby AC3, 2 ch)
  • English (Dolby AC3, 6 ch)
    Subtitles:
  • Russian
    VTS_02 :
    Play Length: 00:00:01+00:00:05+00:00:12
    Video: PAL 16:9 (720x576) VBR, Auto Letterboxed
    Audio:
  • Russian (Dolby AC3, 6 ch)
    VTS_03 :
    Play Length: 00:00:01+00:00:08+00:00:01
    Video: PAL 16:9 (720x576) VBR, Auto Letterboxed
    Audio:
  • Russian (Dolby AC3, 2 ch)
    VTS_04 :
    Play Length: 00:00:01+00:01:31+00:00:01
    Video: PAL 16:9 (720x576) VBR, Auto Letterboxed
    Audio:
  • Russian (Dolby AC3, 2 ch)
    VTS_05 :
    Play Length: 00:00:01+00:06:33+00:00:01+00:02:14+00:00:01+00:01:55+00:00:01
    Video: PAL 16:9 (720x576) VBR, Auto Letterboxed
    Audio:
  • Russian (Dolby AC3, 2 ch)
    * Menus Information *
    VIDEO_TS Menu
    Video:
  • NTSC 4:3 (720x480) VBR
  • Auto Pan&Scan, Auto Letterboxed
    Russian Language Unit :
  • Title Menu
    VTS_01 Menu
    Video:
  • PAL 16:9 (720x576) VBR
  • Auto Letterboxed
    Audio:
  • Not specified (Dolby AC3, 2 ch)
    Russian Language Unit :
  • Root Menu
    VTS_02 Menu
    Video:
  • NTSC 4:3 (720x480) VBR
  • Auto Pan&Scan, Auto Letterboxed
    Language Unit :
  • Angle menu
    Language Unit :
    Language Unit :
    VTS_03 Menu
    Video:
  • NTSC 4:3 (720x480) VBR
  • Auto Pan&Scan, Auto Letterboxed
    Language Unit :
  • Angle menu
    Language Unit :
    Language Unit :
    VTS_04 Menu
    Video:
  • NTSC 4:3 (720x480) VBR
  • Auto Pan&Scan, Auto Letterboxed
    Language Unit :
  • Angle menu
    Language Unit :
    Language Unit :
    VTS_05 Menu
    Video:
  • NTSC 4:3 (720x480) VBR
  • Auto Pan&Scan, Auto Letterboxed
    Russian Language Unit :
  • Root Menu

Меню DVD:

       
Скриншоты:
       
       

_________________
Скачал сам, дай скачать другому!!!Не забудь сказать -
Other forum [Profile] [PM]
Similar theme
Forum Topic Author Torrent Replies Last Post
./templates/default/images/folder_dl.gif Приключения, детектив, боевик, триллер Агата Кристи | Место назначения неизвестно (2018) [MP3] }{@R0N
1 | 0

0 | 979

1

2019-01-22 23:56
}{@R0N Latest
Display posts from previous:    
Reply to topic

The time now is: Today 22:37

All times are GMT + 3 Hours



You cannot post new topics in this forum
You cannot reply to topics in this forum
You cannot edit your posts in this forum
You cannot delete your posts in this forum
You cannot vote in polls in this forum
You cannot attach files in this forum
You cannot download files in this forum