Today is a free download without charge Download

Жизнь хуже обычной / Менее привычная жизнь / A Life Less Ordinary (Дэнни Бойл / Danny Boyle) [1997, США, Великобритания, фэнтези, драма, мелодрама, комедия, криминал, WEB-DL 720p] MVO (Первый канал) + DVO + VO (LeXiKC) + Sub Rus, Eng + Original Eng

Reply to topic
 
Author
Message

Omen ®

Longevity: 8 years 5 months

Posts: 181087

Торрент-статистика

Post 05-Jun-2013 16:21

[Quote]

Жизнь хуже обычной / Менее привычная жизнь / A Life Less Ordinary
Страна: США, Великобритания
Студия: Channel Four Films, Figment Films, Polygram Filmed Entertainment
Жанр: фэнтези, драма, мелодрама, комедия, криминал
Год выпуска: 1997
Продолжительность: 01:43:43
Перевод 1: Профессиональный (многоголосый закадровый) Первый канал
Перевод 2: Любительский (двухголосый закадровый)
Перевод 3: Одноголосый закадровый LeXiKC
Cубтитры: русские (LeXiKC), английские
Оригинальная аудиодорожка: английский
Режиссер: Дэнни Бойл / Danny Boyle
В ролях: Эван МакГрегор, Кэмерон Диаз, Холли Хантер, Делрой Линдо, Дэн Хедайя, Иэн МакНис, Фрэнк Кэниг, Мел Уинклер, Стенли Туччи, Энн Каллимор Декер
Описание: Между ними не было, да и не могло быть ничего общего. Селин Нэвил — избалованная, богатая девушка, для которой самым страшным ночным кошмаром является внезапно опустевшая кредитка. Роберт Льюис — разнорабочий-неудачник, у которого есть самая сокровенная мечта — написать Знаменитый Американский Бульварный Роман.
Но отец Селин уволил Роберта с работы, и тот выкрал девушку прямо у него из-под носа. Такой дерзкий поступок сразу же был замечен на Небесах. На Землю срочным порядком отправляются два ангела О`Рейли и Джексон, ответственные за «человеческие контакты», с целью проследить за развитием столь необычных отношений…

Тип релиза: WEB-DL 720p
Контейнер: MKV
Видео кодек: H264
Аудио кодек: AC3
Видео: 1280x530 (2.40:1), 23.976 fps, ~ 3845 Kbps, 0,23 bit / pixel
Аудио 1: 48 kHz, AC3 Dolby Digital, 2/0 (L,R) ch, ~192 kbps - Первый канал
Аудио 2: 48 kHz, AC3 Dolby Digital, 2/0 (L,R) ch, ~192 kbps - DVO
Аудио 2: 48 kHz, AC3 Dolby Digital, 2/0 (L,R) ch, ~192 kbps - LeXiKC
Аудио 2: 48 kHz, AC3 Dolby Digital, 3/2 (L,C,R,l,r) + LFE ch, ~384 kbps - Оригинал
Формат субтитров: softsub (SRT)

MediaInfo

Complete name : Menee.privychnaya.zhizn'.1997.WEBDL720p.mkv
Format : Matroska
Format version : Version 2
File size : 3.55 GiB
Duration : 1h 43mn
Overall bit rate : 4 902 Kbps
Movie name : Zhizn'.huzhe.obychnoj.1997.WEBDL720p
Encoded date : UTC 2013-06-05 09:37:48
Writing application : mkvmerge v4.0.0 ('The Stars were mine') сборка от Jun 6 2010 16:18:42
Writing library : libebml v1.0.0 + libmatroska v1.0.0
Video
ID : 1
Format : AVC
Format/Info : Advanced Video Codec
Format profile : [email protected]
Format settings, CABAC : No
Format settings, ReFrames : 2 frames
Codec ID : V_MPEG4/ISO/AVC
Duration : 1h 43mn
Bit rate : 3 845 Kbps
Width : 1 280 pixels
Height : 530 pixels
Display aspect ratio : 2.40:1
Frame rate mode : Constant
Frame rate : 23.976 fps
Color space : YUV
Chroma subsampling : 4:2:0
Bit depth : 8 bits
Scan type : Progressive
Bits/(Pixel*Frame) : 0.236
Stream size : 2.79 GiB (78%)
Language : English
Default : No
Forced : No
Color primaries : BT.709
Transfer characteristics : BT.709
Matrix coefficients : BT.709
Audio #1
ID : 2
Format : AC-3
Format/Info : Audio Coding 3
Mode extension : CM (complete main)
Format settings, Endianness : Big
Codec ID : A_AC3
Duration : 1h 43mn
Bit rate mode : Constant
Bit rate : 192 Kbps
Channel(s) : 2 channels
Channel positions : Front: L R
Sampling rate : 48.0 KHz
Bit depth : 16 bits
Compression mode : Lossy
Stream size : 142 MiB (4%)
Title : MVO
Language : Russian
Default : Yes
Forced : No
Audio #2
ID : 3
Format : AC-3
Format/Info : Audio Coding 3
Mode extension : CM (complete main)
Format settings, Endianness : Big
Codec ID : A_AC3
Duration : 1h 43mn
Bit rate mode : Constant
Bit rate : 192 Kbps
Channel(s) : 2 channels
Channel positions : Front: L R
Sampling rate : 48.0 KHz
Bit depth : 16 bits
Compression mode : Lossy
Stream size : 142 MiB (4%)
Title : DVO
Language : Russian
Default : No
Forced : No
Audio #3
ID : 4
Format : AC-3
Format/Info : Audio Coding 3
Mode extension : CM (complete main)
Format settings, Endianness : Big
Codec ID : A_AC3
Duration : 1h 43mn
Bit rate mode : Constant
Bit rate : 192 Kbps
Channel(s) : 2 channels
Channel positions : Front: L R
Sampling rate : 48.0 KHz
Bit depth : 16 bits
Compression mode : Lossy
Stream size : 142 MiB (4%)
Title : VO
Language : Russian
Default : No
Forced : No
Audio #4
ID : 5
Format : AC-3
Format/Info : Audio Coding 3
Mode extension : CM (complete main)
Format settings, Endianness : Big
Codec ID : A_AC3
Duration : 1h 43mn
Bit rate mode : Constant
Bit rate : 384 Kbps
Channel(s) : 6 channels
Channel positions : Front: L C R, Side: L R, LFE
Sampling rate : 48.0 KHz
Bit depth : 16 bits
Compression mode : Lossy
Stream size : 285 MiB (8%)
Language : English
Default : No
Forced : No
Text #1
ID : 6
Format : UTF-8
Codec ID : S_TEXT/UTF8
Codec ID/Info : UTF-8 Plain Text
Language : Russian
Default : No
Forced : No
Text #2
ID : 7
Format : UTF-8
Codec ID : S_TEXT/UTF8
Codec ID/Info : UTF-8 Plain Text
Language : English
Default : No
Forced : No
Menu
00:00:00.000 : en:The Mission
00:03:45.000 : en:Main Titles
00:08:16.000 : en:Insult to Injury
00:11:37.000 : en:Man with a Gun
00:17:11.000 : en:Pit Stop
00:19:43.000 : en:The Kidnapper and the Victim
00:23:12.000 : en:Mysterious Ways
00:26:11.000 : en:Negotiations
00:31:05.000 : en:Tod Johnson
00:35:03.000 : en:Ransom Demands
00:43:09.000 : en:Drinking Games
00:46:02.000 : en:Beyond the Sea
00:51:54.000 : en:The Payoff
00:56:52.000 : en:Dig Your Own Grave
01:03:45.000 : en:Making a Withdrawal
01:07:55.000 : en:Take the Pain
01:11:48.000 : en:"Having Something Ruins Everything"
01:16:31.000 : en:The Poem
01:23:24.000 : en:To the Rescue
01:28:02.000 : en:A Dream Come True
01:33:51.000 : en:The Beginning
01:36:55.000 : en:End Titles

Скриншоты

Other forum [Profile] [PM]
Similar theme
Forum Topic Author Torrent Replies Last Post
./templates/default/images/folder_dl.gif Техническая и научно-популярная литература Вадим Долгов | Потаенная жизнь Древней Руси. Быт, нравы, любовь [2009] [FB2] Omen
0 | 1

0 | 572

1

2013-04-30 18:33
Omen Latest
./templates/default/images/folder_dl.gif Фильмы 2001-2010 Невероятная жизнь Уолтера Митти / The Secret Life of Walter Mitty (Бен Стиллер / Ben Stiller, 2013, Приключения, мелодрама, драма, комедия, фэнтези) WEB-DL [H.264/1080p-LQ] Omen
2 | 0

0 | 1097

36

2014-03-26 22:37
Omen Latest
./templates/default/images/folder_dl.gif Историческая литература Андрей Болотов | Жизнь и приключения Андрея Болотова, описанныя самим им для своих потомков. Том 1-3 (2013) [PDF] Omen
1 | 0

0 | 2499

6

2015-01-01 15:06
Omen Latest
Display posts from previous:    
Reply to topic

The time now is: Today 10:45

All times are GMT + 3 Hours



You cannot post new topics in this forum
You cannot reply to topics in this forum
You cannot edit your posts in this forum
You cannot delete your posts in this forum
You cannot vote in polls in this forum
You cannot attach files in this forum
You cannot download files in this forum