Today is a free download without charge Download

Тревожный вызов / The Call (Брэд Андерсон) (Триллер, 2013) DVD5

Reply to topic
 
Author
Message

Omen ®

Longevity: 8 years 10 months

Posts: 181086

Торрент-статистика

Post 05-Jun-2013 11:52

[Quote]

Тревожный вызов / The Call
«Из 188 миллионов звонков, этот предназначался персонально ей»
- Русское название: Тревожный вызов
Оригинальное название: The Call
Год выпуска: 2013
Производство: Amasia Entertainment / Apotheosis Media Group / WWE Studios / Emergency Films / Troika Pictures [США]
Жанр: Триллер
Перевод: Дублированный [лицензия]
Субтитры: Отсутствуют
Режиссер: Брэд Андерсон
Продюсер: Брэдли Галло, Джеффри Грауп, Майкл А. Хелфант
Актеры: Холли Берри, Эбигейл Бреслин, Моррис Честнат, Майкл Эклунд, Майкл Империоли, Дэвид Отунга, Жустина Мачадо, Хосе Суньига, Рома Маффиа, Эви Томпсон
Описание фильма:
Фильм расскажет про оператора колл-центра 911, куда поступает звонок от девочки-подростка, ставшей жертвой маньяка. Героине предстоит столкнуться со своими кошмарами, чтобы спасти девушку.
Дата мировой премьеры: 15 марта 2013
Дата российской премьеры: 14 марта 2013, «Top Film Distribution»
Дата выхода DVD релиза: Май 2013, «Новый Диск», «New Dream media»

Рейтинг R - Детям до 17 лет обязательно присутствие родителей
Возраст 16+ - Зрителям, достигшим 16 лет
Продолжительность: 01:30:06
Качество видео: DVD5 (R5)
Видео: MPEG-2, [email protected] (PAL 16:9), ~6000 kbps, 0.579 bit/pixel
Аудио: AC3 5.1, 448 kbps, 48 kHz [Русский]

Дополнительные материалы

Отсутствуют

Отчёт DVDInfo

Title: The.Call.(2013).DVD5
Size: 3.90 Gb ( 4 089 022 KBytes ) - DVD-5
Enabled regions: 1, 2, 3, 4, 5, 6, 7, 8
VTS_01 :
Play Length: 01:30:06
Video: PAL 16:9 (720x576) VBR, Auto Pan&Scan
Audio:
  • Russian (Dolby AC3, 6 ch)
    VTS_02 :
    Play Length: 00:00:08
    Video: PAL 4:3 (720x576) VBR
    VTS_03 :
    Play Length: 00:00:21
    Video: PAL 16:9 (720x576) VBR, Auto Pan&Scan
    Audio:
  • English (Dolby AC3, 2 ch)

Отчёт MediaInfo

Полное имя : D:\The.Call.(2013).DVD5\VIDEO_TS\VTS_01_2.VOB
Формат : MPEG-PS
Размер файла : 1024 Мбайт
Продолжительность : 21 м.
Режим общего битрейта : Переменный
Общий поток : 6580 Кбит/сек
Видео
Идентификатор : 224 (0xE0)
Формат : MPEG Video
Версия формата : Version 2
Профиль формата : [email protected]
Параметр BVOP формата : Да
Параметр матрицы формата : Выборочная
Параметр GOP формата : M=3, N=15
Продолжительность : 21 м.
Вид битрейта : Переменный
Битрейт : 6001 Кбит/сек
Максимальный битрейт : 8000 Кбит/сек
Ширина : 720 пикселей
Высота : 576 пикселей
Соотношение сторон : 16:9
Частота кадров : 25,000 кадров/сек
Стандарт вещания : PAL
Цветовое пространство : YUV
Субдискретизация насыщенности : 4:2:0
Битовая глубина : 8 бит
Тип развёртки : Чересстрочная
Порядок развёртки : Верхнее поле первое
Метод сжатия : С потерями
Бит/(Пиксели*Кадры) : 0.579
Размер потока : 934 Мбайт (91%)
Аудио
Идентификатор : 189 (0xBD)-128 (0x80)
Формат : AC-3
Формат/Информация : Audio Coding 3
Расширение режима : CM (complete main)
Параметр Endianness формата : Big
Режим смешивания : DVD-Video
Продолжительность : 21 м.
Вид битрейта : Постоянный
Битрейт : 448 Кбит/сек
Каналы : 6 каналов
Расположение каналов : Front: L C R, Side: L R, LFE
Частота : 48,0 КГц
Битовая глубина : 16 бит
Метод сжатия : С потерями
Задержка видео : -704 мс.
Размер потока : 69,7 Мбайт (7%)
Меню

Скриншоты меню

   
Скриншоты:
       
       
Other forum [Profile] [PM]
Display posts from previous:    
Reply to topic

The time now is: Today 23:47

All times are GMT + 3 Hours



You cannot post new topics in this forum
You cannot reply to topics in this forum
You cannot edit your posts in this forum
You cannot delete your posts in this forum
You cannot vote in polls in this forum
You cannot attach files in this forum
You cannot download files in this forum