Today is a free download without charge Download

Место под соснами / The Place Beyond the Pines (Дерек Сиенфрэнс) (Драма, Криминал, 2012) BDRip [1080p]

Reply to topic
 
Author
Message

Omen ®

Longevity: 8 years 5 months

Posts: 181087

Торрент-статистика

Post 05-Jun-2013 11:19

[Quote]

Место под соснами
The Place Beyond the Pines
--«Месть в наследство»- Русское название: Место под соснами
Оригинальное название: The Place Beyond the Pines
Год выпуска: 2012
Производство: США / Focus Features, Sidney Kimmel Entertainment, Electric City Entertainment
Жанр: Драма, Криминал
Перевод: Дублированный [лицензия]
Субтитры: Вшитые отключаемые
Язык субтитров: Русский
Дата мировой премьеры: 7 сентября 2012
Дата российской премьеры: 18 апреля 2013, «Каравелла DDC»
Дата выхода DVD/Blu-Ray релиза: 5 июня 2013, «Кармен Видео»
Режиссер: Дерек Сиенфрэнс
Актеры: Райан Гослинг, Брэдли Купер, Ева Мендес, Рэй Лиотта, Бен Мендельсон, Роуз Бирн, Махершалалхашбаз Али, Брюс Гринвуд, Харрис Юлин, Дэйн ДеХаан--Описание фильма:
История профессионального мотогонщика, который начинает грабить банки, чтобы содержать новорожденного сына. Однажды на его пути встает полицейский, и столкновение парней перерастает в личную войну.--
Продолжительность: 02:20:13
Качество видео: BDRip 1080p
Видеокодек: MPEG-4 AVC/H.264
Битрейт видео: ~10.8 Мбит/с
Размер кадра: 1920x804
Аудиокодек: DTS
Аудио #1: Русский ( DTS / 5.1 / 48 kHz / 1536 kbps ) - Дубляж
Аудио #2: Английский ( DTS / 5.1 / 48 kHz / 1536 kbps )

-

MediaInfo:

Общее
Уникальный идентификатор : 202186524425646814832785917476219221954 (0x981BB54AE916396A96FD1EF22C9177C2)
Полное имя : Место под соснами _ The Place Beyond the Pines (2012) BDRip 1080p.mkv
Формат : Matroska
Версия формата : Version 2
Размер файла : 13,8 Гбайт
Продолжительность : 2 ч. 20 м.
Общий поток : 14,1 Мбит/сек
Название фильма : IRONCLUB
Дата кодирования : UTC 2013-06-03 17:02:53
Программа кодирования : mkvmerge v5.2.0 ('I can't explain') built on Dec 18 2011 18:12:03
Библиотека кодирования : libebml v1.2.3 + libmatroska v1.3.0
Видео
Идентификатор : 1
Формат : AVC
Формат/Информация : Advanced Video Codec
Профиль формата : [url=mailto:[email protected]][email protected][/url]
Параметр CABAC формата : Да
Параметр ReFrames формата : 5 кадров
Идентификатор кодека : V_MPEG4/ISO/AVC
Битрейт : 10,8 Мбит/сек
Ширина : 1920 пикселей
Высота : 804 пикселя
Соотношение сторон : 2,40:1
Режим частоты кадров : Переменный
Частота кадров в оригинале : 24,000 кадра/сек
Цветовое пространство : YUV
Субдискретизация насыщенности : 4:2:0
Битовая глубина : 8 бит
Тип развёртки : Прогрессивная
Заголовок : The.Place.Beyond.the.Pines.2012.1080p.BluRay.DTS.x264-IRONCLUB
Библиотека кодирования : x264 core 130 r2273 b3065e6
Настройки программы : cabac=1 / ref=5 / deblock=1:-3:-3 / analyse=0x3:0x113 / me=umh / subme=11 / psy=1 / psy_rd=1.20:0.00 / mixed_ref=1 / me_range=48 / chroma_me=1 / trellis=2 / 8x8dct=1 / cqm=0 / deadzone=21,11 / fast_pskip=0 / chroma_qp_offset=-2 / threads=12 / lookahead_threads=2 / sliced_threads=0 / nr=0 / decimate=1 / interlaced=0 / bluray_compat=0 / constrained_intra=0 / bframes=8 / b_pyramid=2 / b_adapt=2 / b_bias=0 / direct=3 / weightb=1 / open_gop=0 / weightp=2 / keyint=250 / keyint_min=24 / scenecut=40 / intra_refresh=0 / rc_lookahead=192 / rc=crf / mbtree=0 / crf=20.5 / qcomp=0.75 / qpmin=0 / qpmax=69 / qpstep=4 / vbv_maxrate=50000 / vbv_bufsize=62500 / crf_max=0.0 / nal_hrd=none / ip_ratio=1.30 / pb_ratio=1.20 / aq=1:0.80
Язык : English
Default : Да
Forced : Да
Коэффициенты матрицы : BT.709
Аудио #1
Идентификатор : 2
Формат : DTS
Формат/Информация : Digital Theater Systems
Идентификатор кодека : A_DTS
Продолжительность : 2 ч. 20 м.
Вид битрейта : Постоянный
Битрейт : 1510 Кбит/сек
Каналы : 6 каналов
Расположение каналов : Front: L C R, Side: L R, LFE
Частота : 48,0 КГц
Битовая глубина : 16 бит
Метод сжатия : С потерями
Размер потока : 1,48 Гбайт (11%)
Заголовок : DTS 5.1 @ 1536 kbps
Язык : Russian
Default : Да
Forced : Да
Аудио #2
Идентификатор : 3
Формат : DTS
Формат/Информация : Digital Theater Systems
Идентификатор кодека : A_DTS
Продолжительность : 2 ч. 20 м.
Вид битрейта : Постоянный
Битрейт : 1510 Кбит/сек
Каналы : 6 каналов
Расположение каналов : Front: L C R, Side: L R, LFE
Частота : 48,0 КГц
Битовая глубина : 16 бит
Метод сжатия : С потерями
Размер потока : 1,48 Гбайт (11%)
Заголовок : DTS 5.1 @ 1536 kbps
Язык : English
Default : Нет
Forced : Нет
Текст
Идентификатор : 4
Формат : UTF-8
Идентификатор кодека : S_TEXT/UTF8
Идентификатор кодека/Информация : UTF-8 Plain Text
Язык : Russian
Default : Нет
Forced : Нет
Меню
00:00:00.000 : en:00:00:00.000
00:11:50.375 : en:00:11:50.375
00:21:43.291 : en:00:21:43.291
00:33:08.708 : en:00:33:08.708
00:40:35.916 : en:00:40:35.916
00:52:02.666 : en:00:52:02.666
01:03:16.208 : en:01:03:16.208
01:12:53.625 : en:01:12:53.625
01:22:57.500 : en:01:22:57.500
01:34:39.500 : en:01:34:39.500
01:49:16.000 : en:01:49:16.000
02:06:21.208 : en:02:06:21.208
-Скриншоты:

         
         

Other forum [Profile] [PM]
Display posts from previous:    
Reply to topic

The time now is: Today 10:29

All times are GMT + 3 Hours



You cannot post new topics in this forum
You cannot reply to topics in this forum
You cannot edit your posts in this forum
You cannot delete your posts in this forum
You cannot vote in polls in this forum
You cannot attach files in this forum
You cannot download files in this forum