Today is a free download without charge Download

Стой! Или моя мама будет стрелять / Stop! Or My Mom Will Shoot (Роджер Споттисвуд/Roger Spottiswoode) (Боевик, комедия, 1992) DVD5

Reply to topic
 
Author
Message

Omen ®

Longevity: 8 years 5 months

Posts: 181087

Торрент-статистика

Post 05-Jun-2013 11:14

[Quote]

Стой! Или моя мама будет стрелять
Stop! Or My Mom Will Shoot
- Русское название: Стой! Или моя мама будет стрелять
Оригинальное название: Stop! Or My Mom Will Shoot
Год выпуска: 1992
Производство: США , Northern Lights Entertainment, Universal Pictures
Жанр: Боевик, комедия
Перевод: Профессиональный (двухголосый, закадровый)
Язык субтитров: Отсутствует

Дата мировой премьеры: 21 февраля 1992
Cборы в СШA: $28 411 210
Cборы в мирe: + $42 200 000 = $70 611 210
Режиссер: Роджер Споттисвуд/Roger Spottiswoode
Cценарий: Блейк Снайдер, Уильям Осборн, Уильям Дэвис
Актеры: Сильвестр Сталлоне, Эстель Гетти, ДжоБет Уильямс, Роджер Рис, Мартин Ферреро, Гейлард Сартейн, Джон Уэсли, Эл Фэнн, Элла Джойс, Дж. Кеннет Кэмпбелл, Николас Сэдлер, Деннис Бёркли, Винг Реймз, Яна Арнольд, Крис Латта и др.
Описание фильма:
У сержанта полиции Лос-Анджелеса Джо Борновски жизнь перевернулась вверх дном после того, как его милая мамаша Тутти решила навестить любимого сыночка. К огромной радости подружки и непосредственного начальника Джо, лейтенанта Гвен Харпер, Тутти сразу приводит в порядок его холостяцкую берлогу и начинает налаживать "хозяйство". Как вы прекрасно понимаете, бравый сержант не в восторге от всех этих нововведений. А тут еще, в дополнение ко всем проблемам, неугомонная Тутти оказывается свидетельницей убийства и требует... чтобы сын позволил ей участвовать в расследовании! В итоге Джо получает нового напарника - собственную мамулю, которая решает задать преступникам солидную трепку!
Дополнительные материалы: Отсутствуют
Продолжительность: 01:23:31
Качество: DVD
Формат: DVD5
Видео кодек: MPEG-2
Битрейт видео: 5990 Кбит/сек
Размер кадра: [email protected] PAL 16:9 VBR, Auto Letterboxed
Аудио#1: Русский АС-3 2.0 384 Кбит/сек 48,0 КГц 16 бит
Аудио#2: Английский АС-3 2.0 384 Кбит/сек 48,0 КГц 16 бит

Скриншоты меню

       
Скриншоты:
       
       

DVDInfo

Title: Stoy!_Ili_moya_mama_budet_strelyat'_DVD5
Size: 4.07 Gb ( 4 266 726,00 KBytes ) - DVD-5
Enabled regions: 1, 2, 3, 4, 5, 6, 7, 8
VTS_01 :
Play Length: 00:00:21+01:23:31
Video: PAL 16:9 (720x576) VBR, Auto Letterboxed
Audio:
  • Russian (Dolby AC3, 2 ch)
  • English (Dolby AC3, 2 ch)

MediaInfo

Общее
Полное имя : M:\Stoy!_Ili_moya_mama_budet_strelyat'_DVD5\VIDEO_TS\VTS_01_1.VOB
Формат : MPEG-PS
Размер файла : 1024 Мбайт
Продолжительность : 20 м.
Режим общего битрейта : Переменный
Общий поток : 6895 Кбит/сек
Видео
Идентификатор : 224 (0xE0)
Формат : MPEG Video
Версия формата : Version 2
Профиль формата : [email protected]
Параметр BVOP формата : Да
Параметр матрицы формата : Выборочная
Параметр GOP формата : M=3, N=15
Продолжительность : 20 м.
Вид битрейта : Переменный
Битрейт : 5990 Кбит/сек
Максимальный битрейт : 7500 Кбит/сек
Ширина : 720 пикселей
Высота : 576 пикселей
Соотношение сторон : 16:9
Частота кадров : 25,000 кадров/сек
Стандарт вещания : PAL
Цветовое пространство : YUV
Субдискретизация насыщенности : 4:2:0
Битовая глубина : 8 бит
Тип развёртки : Чересстрочная
Порядок развёртки : Верхнее поле первое
Метод сжатия : С потерями
Бит/(Пиксели*Кадры) : 0.578
TimeCode_FirstFrame : 00:00:00:00
TimeCode_Source : Group of pictures header
Размер потока : 890 Мбайт (87%)
Аудио #1
Идентификатор : 189 (0xBD)-128 (0x80)
Формат : AC-3
Формат/Информация : Audio Coding 3
Расширение режима : CM (complete main)
Параметр Endianness формата : Big
Режим смешивания : DVD-Video
Продолжительность : 20 м.
Вид битрейта : Постоянный
Битрейт : 384 Кбит/сек
Каналы : 2 канала
Расположение каналов : Front: L R
Частота : 48,0 КГц
Битовая глубина : 16 бит
Метод сжатия : С потерями
Размер потока : 57,0 Мбайт (6%)
Аудио #2
Идентификатор : 189 (0xBD)-129 (0x81)
Формат : AC-3
Формат/Информация : Audio Coding 3
Расширение режима : CM (complete main)
Параметр Endianness формата : Big
Режим смешивания : DVD-Video
Продолжительность : 5 с. 888 мс.
Вид битрейта : Постоянный
Битрейт : 384 Кбит/сек
Каналы : 2 канала
Расположение каналов : Front: L R
Частота : 48,0 КГц
Битовая глубина : 16 бит
Метод сжатия : С потерями
Размер потока : 276 Кбайт (0%)
Меню
Other forum [Profile] [PM]
Display posts from previous:    
Reply to topic

The time now is: Today 08:40

All times are GMT + 3 Hours



You cannot post new topics in this forum
You cannot reply to topics in this forum
You cannot edit your posts in this forum
You cannot delete your posts in this forum
You cannot vote in polls in this forum
You cannot attach files in this forum
You cannot download files in this forum