Today is a free download without charge Download

Двухсотлетний человек / Bicentennial Man (Крис Коламбус) (Фантастика, фэнтези, драма, мелодрама, семейный, 1999) HDTVRip [720p]

Reply to topic
 
Author
Message

Omen ®

Longevity: 8 years 5 months

Posts: 181087

Торрент-статистика

Post 05-Jun-2013 11:10

[Quote]

Двухсотлетний человек
Bicentennial Man

«One robot's 200 year journey to become an ordinary man.»
- Русское название: Двухсотлетний человек
Оригинальное название: Bicentennial Man
Год выпуска: 1999
Производство: 1492 Pictures / Columbia Pictures Corporation / Laurence Mark Productions / Radiant Productions / Touchstone Pictures [США, Германия]
Жанр: Фантастика, фэнтези, драма, мелодрама, семейный
Перевод: Дублированный, Многоголосый закадровый
Субтитры: Вшитые отключаемые
Язык субтитров: Русский, английский
Режиссер: Крис Коламбус
Продюсер: Майкл Барнатан, Крис Коламбус, Гэйл Кац
Актеры: Робин Уильямс, Эмбет Дэвидц, Сэм Нил, Оливер Платт, Кирстен Уоррен, Венди Крюсон, Халли Кейт Айзенберг, Линдзи Летерман, Анджела Лэндис, Джон Майкл Хиггинс
Описание фильма:
Начало нового тысячелетия; происходит прорыв в глобальных технологиях. Люди уже не заводят дома собак и кошек: они покупают себе роботов. Вот и семья Мартинов приобретает себе необычный подарок: робота нового поколения NDR-114, а в обычной жизни просто Эндрю. Купленный как прибор, запрограммированный для выполнения домашней работы, Эндрю вдруг начинает испытывать странные ощущения. Он еще не знает, что это называется чувствами.

Дата мировой премьеры: 13 декабря 1999
Рейтинг PG - Рекомендуется присутствие родителей
Возраст 0+ - Для любой зрительской аудитории
Продолжительность: 02:06:03
Качество видео: HDTVRip
Видео: MPEG4_AVC/H.264, 1280x720, ~4000 kbps, 25 fps
Аудио 1: AC3 5.1, 448 kbps [Русский - дублированный]
Аудио 2: AC3 5.1, 448 kbps [Русский - многоголосый закадровый]
Аудио 3: AC3 2.0, 224 kbps [Русский - многоголосый закадровый «СТС-ОРТ»]
Аудио 4: AC3 5.1, 448 kbps [Английский - оригинал]

Отчёт MediaInfo

Полное имя : D:\Двухсотлетний.человек-Bicentennial.Man.(1999).HDTVRip.[720p].mkv
Формат : Matroska
Версия формата : Version 2
Размер файла : 4,90 Гбайт
Продолжительность : 2 ч. 6 м.
Общий поток : 5570 Кбит/сек
Название фильма : Bicentennial_Man
Дата кодирования : UTC 2013-06-04 02:10:46
Программа кодирования : mkvmerge v5.7.0 ('The Whirlwind') built on Aug 7 2012 14:11:40
Библиотека кодирования : libebml v1.2.3 + libmatroska v1.3.0
Видео
Идентификатор : 1
Формат : AVC
Формат/Информация : Advanced Video Codec
Профиль формата : [url=mailto:[email protected]][email protected][/url]
Параметр CABAC формата : Да
Параметр ReFrames формата : 8 кадров
Идентификатор кодека : V_MPEG4/ISO/AVC
Продолжительность : 2 ч. 6 м.
Битрейт : 4000 Кбит/сек
Ширина : 1280 пикселей
Высота : 720 пикселей
Соотношение сторон : 16:9
Режим частоты кадров : Постоянный
Частота кадров : 25,000 кадров/сек
Цветовое пространство : YUV
Субдискретизация насыщенности : 4:2:0
Битовая глубина : 8 бит
Тип развёртки : Прогрессивная
Бит/(Пиксели*Кадры) : 0.174
Размер потока : 3,43 Гбайт (70%)
Заголовок : Bicentennial.Man.(1999).HDTVRip.[720p]
Библиотека кодирования : x264 core 125 r2200 999b753
Настройки программы : cabac=1 / ref=8 / deblock=1:-1:-1 / analyse=0x3:0x113 / me=umh / subme=10 / psy=1 / psy_rd=1.00:0.05 / mixed_ref=1 / me_range=32 / chroma_me=1 / trellis=2 / 8x8dct=1 / cqm=0 / deadzone=21,11 / fast_pskip=0 / chroma_qp_offset=-3 / threads=12 / lookahead_threads=2 / sliced_threads=0 / nr=0 / decimate=1 / interlaced=0 / bluray_compat=0 / constrained_intra=0 / bframes=10 / b_pyramid=2 / b_adapt=2 / b_bias=0 / direct=3 / weightb=1 / open_gop=0 / weightp=2 / keyint=250 / keyint_min=25 / scenecut=40 / intra_refresh=0 / rc=2pass / mbtree=0 / bitrate=4000 / ratetol=1.0 / qcomp=0.60 / qpmin=0 / qpmax=69 / qpstep=4 / cplxblur=20.0 / qblur=0.5 / ip_ratio=1.40 / pb_ratio=1.30 / aq=1:0.90
Язык : English
Default : Да
Forced : Нет
Основные цвета : BT.709
Характеристики трансфера : BT.709
Коэффициенты матрицы : BT.709
Аудио #1
Идентификатор : 2
Формат : AC-3
Формат/Информация : Audio Coding 3
Расширение режима : CM (complete main)
Параметр Endianness формата : Big
Идентификатор кодека : A_AC3
Продолжительность : 2 ч. 6 м.
Вид битрейта : Постоянный
Битрейт : 448 Кбит/сек
Каналы : 6 каналов
Расположение каналов : Front: L C R, Side: L R, LFE
Частота : 48,0 КГц
Битовая глубина : 16 бит
Метод сжатия : С потерями
Размер потока : 404 Мбайт (8%)
Заголовок : AC3 5.1 / 448 kbps / Dub
Язык : Russian
Default : Да
Forced : Нет
Аудио #2
Идентификатор : 3
Формат : AC-3
Формат/Информация : Audio Coding 3
Расширение режима : CM (complete main)
Параметр Endianness формата : Big
Идентификатор кодека : A_AC3
Продолжительность : 2 ч. 6 м.
Вид битрейта : Постоянный
Битрейт : 448 Кбит/сек
Каналы : 6 каналов
Расположение каналов : Front: L C R, Side: L R, LFE
Частота : 48,0 КГц
Битовая глубина : 16 бит
Метод сжатия : С потерями
Размер потока : 404 Мбайт (8%)
Заголовок : AC3 5.1 / 448 kbps / MVO
Язык : Russian
Default : Нет
Forced : Нет
Аудио #3
Идентификатор : 4
Формат : AC-3
Формат/Информация : Audio Coding 3
Расширение режима : CM (complete main)
Параметр Endianness формата : Big
Идентификатор кодека : A_AC3
Продолжительность : 2 ч. 6 м.
Вид битрейта : Постоянный
Битрейт : 224 Кбит/сек
Каналы : 2 канала
Расположение каналов : Front: L R
Частота : 48,0 КГц
Битовая глубина : 16 бит
Метод сжатия : С потерями
Размер потока : 202 Мбайт (4%)
Заголовок : AC3 2.0 / 224 kbps / MVO (СТС-ОРТ)
Язык : Russian
Default : Нет
Forced : Нет
Аудио #4
Идентификатор : 5
Формат : AC-3
Формат/Информация : Audio Coding 3
Расширение режима : CM (complete main)
Параметр Endianness формата : Big
Идентификатор кодека : A_AC3
Продолжительность : 2 ч. 6 м.
Вид битрейта : Постоянный
Битрейт : 448 Кбит/сек
Каналы : 6 каналов
Расположение каналов : Front: L C R, Side: L R, LFE
Частота : 48,0 КГц
Битовая глубина : 16 бит
Метод сжатия : С потерями
Размер потока : 404 Мбайт (8%)
Заголовок : AC3 5.1 / 448 kbps / Original
Язык : English
Default : Нет
Forced : Нет
Текст #1
Идентификатор : 6
Формат : UTF-8
Идентификатор кодека : S_TEXT/UTF8
Идентификатор кодека/Информация : UTF-8 Plain Text
Язык : Russian
Default : Нет
Forced : Нет
Текст #2
Идентификатор : 7
Формат : UTF-8
Идентификатор кодека : S_TEXT/UTF8
Идентификатор кодека/Информация : UTF-8 Plain Text
Язык : English
Default : Нет
Forced : Нет

Знаете ли вы, что...

  • Штаб-квартира компании «NorthAm Robotics» на самом деле является штаб-квартирой «Oracle Corporation» в США.
  • Номер робота Эндрю — NDR-114. Здесь можно проследить связь со Стэнли Кубриком, который неоднократно использовал это число в своих фильмах (например, «Заводной апельсин» (1971), «Доктор Стрейнджлав, или Как я перестал бояться и полюбил бомбу» (1964)). В рассказе Азимова робот Эндрю «не помнил» своего номера.
  • Три правила, которым следует Эндрю, есть «Три закона робототехники», сформулированные Айзеком Азимовым, которые очень популярны в научной фантастике.
  • Машина, которую водит Ma’am, прежде использовалась в фильме «Разрушитель» (1993).
  • Имя «Галатея» для героини фильма выбрано не случайно. В древней мифологии Галатея — ожившая статуя, изваянная Пигмалионом.
Скриншоты:
       
       
Other forum [Profile] [PM]
Display posts from previous:    
Reply to topic

The time now is: Today 01:32

All times are GMT + 3 Hours



You cannot post new topics in this forum
You cannot reply to topics in this forum
You cannot edit your posts in this forum
You cannot delete your posts in this forum
You cannot vote in polls in this forum
You cannot attach files in this forum
You cannot download files in this forum