Today is a free download without charge Download

Последний дом слева / The Last House on the Left [ Уэс Крэйвен (1972) ужасы, триллер, BDRip 720p ]

Reply to topic
 
Author
Message

Delia ®

Gender:

Longevity: 9 years 6 months

Posts: 1821

Торрент-статистика

Post 12-Aug-2011 00:18

[Quote]

Последний дом слева The Last House on the Left «Чтобы избежать обмороков, не устают повторять, 'Это всего лишь кино ... Это всего лишь кино ...'»-- Год выхода: 1972
Жанр: ужасы, триллер
Режиссер: Уэс Крэйвен
Страна: США
Продолжительность: 01:24:29
Перевод: Любительский (одноголосый)Визгунов
В ролях: Сандра Кэссел, Люси Грэнтхем, Дэвид Хесс, Фред Дж. Линкольн, Jeramie Rain, Marc Sheffler, Гэйлорд Ст. Джеймс, Синтия Карр, Ада Вашингтон, Маршалл Анкер
О фильме:
Две молодые девушки Мари и Филис поехали из своей «глубинки» на рок-концерт в большой город, где планировали хорошенько «оторваться». Однако «в отрыв» пошли не они, а компания беглых преступников во главе с брутальным Кругом, которая вдоволь поиздевалась и надругалась над бедными девушками.
Итог: секс, насилие, кровь и комедийный саундтрек! Да, хороший режиссер может снять отличное кино и за копейки, и вот, спустя тридцать пять лет, его еще можно смотреть с удовольствием. Классика!-Первоначально фильм получил самый высший рейтинг MPAA – «X», Тогда Уэс Крейвен подрезал фильм на 10 минут и снова отправил на комиссию. Картина опять получила тот же рейтинг. Неунывающий режиссёр вырезал ещё 10 минут, но и это не дало результата. Тогда Крейвен просто взял печать с рейтингом «R» у друга и самовольно поставил штамп. Таким образом, ему удалось издать фильм.
В Великобритании картина была запрещена до 2002 года.
В качестве имени одной из главных героинь Крейвен использовал имя и фамилию своей одноклассницы Мэри Коллинвуд.
Фильм снимался в Уэстпорте, штат Коннектикут.
Когда компании-дистрибьюторы Hallmark и Atlas запустили фильм на немецкие экраны, они попытались выдать его за «снафф-фильм» (порнофильм с настоящими убийствами).


Кодек: H.264
Качество: BDRip720p
Видео: English, 6768 Кбит/сек, 1280*688 (1,860), в 23,976 кадр/сек, AVC ([email protected])
Звук:
Russian, 192 Кбит/сек, 48,0 КГц, 16 бит, 2 канала(ов), AC-3
English, 320 Кбит/сек, 48,0 КГц, 16 бит, 2 канала(ов), AC-3
Субтитры: English,Spanish,French - VobSub

MI:

Код:
Общее
Уникальный идентификатор         : 252081888863338074806287674942763664894 (0xBDA534B09DEC3BE491EC01321F4D85FE)
Полное имя                       : E:\торрент\The Last House on the Left(1972)720p.mkv
Формат                           : Matroska
Размер файла                     : 4,30 Гбайт
Продолжительность                : 1 ч. 24 м.
Общий поток                      : 7288 Кбит/сек
Дата кодирования                 : UTC 2011-08-11 16:20:31
Программа кодирования            : mkvmerge v4.9.1 ('Ich will') built on Jul 11 2011 23:53:15
Библиотека кодирования           : libebml v1.2.1 + libmatroska v1.1.1
Видео
Идентификатор                    : 1
Формат                           : AVC
Формат/Информация                : Advanced Video Codec
Профиль формата                  : [email protected]
Параметр CABAC формата           : Да
Параметр ReFrames формата        : 9 кадров
Идентификатор кодека             : V_MPEG4/ISO/AVC
Продолжительность                : 1 ч. 24 м.
Битрейт                          : 6768 Кбит/сек
Ширина                           : 1280 пикс.
Высота                           : 688 пикс.
Соотношение сторон               : 1,860
Частота кадров                   : 23,976 кадр/сек
Цветовое пространство            : YUV
Подвыборка цветности             : 4:2:0
Битовая глубина                  : 8 бит
Тип развёртки                    : Прогрессивная
Бит/(Пиксели*Кадры)              : 0.321
Размер потока                    : 3,91 Гбайт (91%)
Библиотека кодирования           : x264 core 116 r2044 392e762
Настройки программы              : cabac=1 / ref=9 / deblock=1:0:0 / analyse=0x3:0x133 / me=umh / subme=8 / psy=1 / psy_rd=1.00:0.15 / mixed_ref=1 / me_range=24 / chroma_me=1 / trellis=2 / 8x8dct=1 / cqm=0 / deadzone=21,11 / fast_pskip=0 / chroma_qp_offset=-3 / threads=6 / sliced_threads=0 / nr=0 / decimate=1 / interlaced=0 / bluray_compat=0 / constrained_intra=0 / bframes=8 / b_pyramid=2 / b_adapt=2 / b_bias=0 / direct=3 / weightb=1 / open_gop=0 / weightp=2 / keyint=250 / keyint_min=23 / scenecut=40 / intra_refresh=0 / rc=2pass / mbtree=0 / bitrate=6768 / ratetol=1.0 / qcomp=0.80 / qpmin=10 / qpmax=51 / qpstep=4 / cplxblur=20.0 / qblur=0.5 / ip_ratio=1.40 / pb_ratio=1.30 / aq=1:1.00
Язык                             : English
Аудио #1
Идентификатор                    : 2
Формат                           : AC-3
Формат/Информация                : Audio Coding 3
Расширение режима                : CM (complete main)
Идентификатор кодека             : A_AC3
Продолжительность                : 1 ч. 24 м.
Вид битрейта                     : Постоянный
Битрейт                          : 192 Кбит/сек
Каналы                           : 2 канала
Расположение каналов             : Front: L R
Частота                          : 48,0 КГц
Битовая глубина                  : 16 бит
Метод сжатия                     : С потерями
Размер потока                    : 116 Мбайт (3%)
Язык                             : Russian
Аудио #2
Идентификатор                    : 3
Формат                           : AC-3
Формат/Информация                : Audio Coding 3
Расширение режима                : CM (complete main)
Идентификатор кодека             : A_AC3
Продолжительность                : 1 ч. 24 м.
Вид битрейта                     : Постоянный
Битрейт                          : 320 Кбит/сек
Каналы                           : 2 канала
Расположение каналов             : Front: L R
Частота                          : 48,0 КГц
Битовая глубина                  : 16 бит
Метод сжатия                     : С потерями
Размер потока                    : 193 Мбайт (4%)
Язык                             : English
Текст #1
Идентификатор                    : 4
Формат                           : VobSub
Режим смешивания                 : zlib
Идентификатор кодека             : S_VOBSUB
Идентификатор кодека/Информация  : The same subtitle format used on DVDs
Язык                             : English
Текст #2
Идентификатор                    : 5
Формат                           : VobSub
Режим смешивания                 : zlib
Идентификатор кодека             : S_VOBSUB
Идентификатор кодека/Информация  : The same subtitle format used on DVDs
Язык                             : Spanish
Текст #3
Идентификатор                    : 6
Формат                           : VobSub
Режим смешивания                 : zlib
Идентификатор кодека             : S_VOBSUB
Идентификатор кодека/Информация  : The same subtitle format used on DVDs
Язык                             : French
Меню
00:00:00.000                     : en:00:00:00.000
00:07:12.557                     : en:00:07:12.557
00:11:44.537                     : en:00:11:44.537
00:19:28.918                     : en:00:19:28.918
00:24:36.517                     : en:00:24:36.517
00:31:38.063                     : en:00:31:38.063
00:37:10.895                     : en:00:37:10.895
00:42:13.030                     : en:00:42:13.030
00:50:49.630                     : en:00:50:49.630
00:54:55.626                     : en:00:54:55.626
01:00:35.173                     : en:01:00:35.173
01:04:55.558                     : en:01:04:55.558
01:06:17.348                     : en:01:06:17.348
01:14:25.419                     : en:01:14:25.419
01:18:39.173                     : en:01:18:39.173
01:22:51.300                     : en:01:22:51.300

Скриншоты

       

_________________
Человек – это канат, натянутый между животным и сверхчеловеком, – канат над пропастью.
В человеке ценно то, что он мост, а не цель. Фридрих Ницше


Last edited by Delia on 2011-10-26 11:53; edited 3 times in total
Other forum [Profile] [PM]
Similar theme
Forum Topic Author Torrent Replies Last Post
./templates/default/images/folder_dl.gif Компьютерная литература Михаил Пантаев | Матанализ с человеческим лицом, или Как выжить после предельного перехода. Полный курс математического анализа. Том 2 (2016) [PDF] moralis
1 | 0

0 | 2843

19

2016-03-09 21:50
moralis Latest
./templates/default/images/folder_dl.gif Справочники, энциклопедии и словари Михаил Пантаев | Матанализ с человеческим лицом, или Как выжить после предельного перехода. Полный курс математического анализа. Том 1 (2015) [PDF] moralis
1 | 0

0 | 2849

15

2016-03-09 21:51
moralis Latest
./templates/default/images/folder_dl.gif Эротические игры The Last Weekend / Последние выходные [Demo] [RUS] (2016) (DEMO) Omen
1 | 0

2 | 4520

7

2016-09-10 15:34
Anonymous Latest
./templates/default/images/folder_dl.gif Новинки (HD|DVD|BD|WEB|TV|SAT|PDTV|-Rip) Последнее испытание (Алексей А. Петрухин) [2018 г., драма, боевик, WEB-DLRip ] iTunes kilmister777
2 | 0

0 | 644

0

2019-10-07 14:10
kilmister777 Latest
Display posts from previous:    
Reply to topic

The time now is: Today 18:21

All times are GMT + 3 Hours



You cannot post new topics in this forum
You cannot reply to topics in this forum
You cannot edit your posts in this forum
You cannot delete your posts in this forum
You cannot vote in polls in this forum
You cannot attach files in this forum
You cannot download files in this forum