Today is a free download without charge Download

Naruto the Movie: Road to Ninja / Наруто: Путь ниндзя (фильм девятый) [2012, Movie] BDRip 720p Hi10p Rus

Reply to topic
 
Author
Message

UndegraundMen ®

Longevity: 8 years 11 months

Posts: 25145

Торрент-статистика

Post 05-Jun-2013 04:19

[Quote]

Naruto the Movie: Road to Ninja
Наруто
Путь ниндзя
Фильм девятый
- Жанр: приключения, фэнтези
Тип: Фильм
Продолжительность: Полнометражный фильм, 1 ч. 49 м.
Дата премьеры / период выхода: 28.07.2012
Производство/студия:
Релиз от: AniDUB
Автор оригинала: Кисимото Масаси
Режиссер: Датэ Хаято
Перевод: Дядя
Озвучка: [Gears Media] - Inspector_Gadjet & Ayumi
Работа со звуком: Всеволод Парк
Контейнер: mp4
Video: 1280x676, x264, 23.976 fps, ~2872 kbps
Audio 1(RUS): AAC, 192kbs
Описание:
Человек в маске, представленный зрителю как Мадара, решает завладеть силой девятихвостого, для чего нападает на Наруто и Сакуру, и с помощью силы глаз использует технику «Цукиёми», которая погружает наших героев в параллельную реальность. Здесь всё наоборот, родители Наруто живы, Сакура героиня деревни, Саске никуда не уходил, Акацки защищают Коноху, и всё кажется идеально. Вот только тот ли это мир, который хочет защитить Наруто, его ли это жизнь? С помощью Сакуры, наш герой должен найти ответ на эти вопросы и разобраться с человеком в маске.

MediaInfo:

Общее
Полное имя : G:\NNM-Club\Anime Realese\[AniDub]_Naruto_Road_to_Ninja_[Gears Media]\[AniDub]_Naruto_Road_to_Ninja_[1280x720_x264]_[Gears Media].mp4
Формат : MPEG-4
Профиль формата : Base Media
Идентификатор кодека : isom
Размер файла : 2,36 Гбайт
Продолжительность : 1 ч. 49 м.
Режим общего битрейта : Переменный
Общий поток : 3072 Кбит/сек
Дата кодирования : UTC 2013-06-02 17:51:44
Дата пометки : UTC 2013-06-02 17:51:44
Программа кодирования : Yamb 2.1.0.0 [http://yamb.unite-video.com]
Видео
Идентификатор : 1
Формат : AVC
Формат/Информация : Advanced Video Codec
Профиль формата : High [url=mailto:[email protected]][email protected][/url]
Параметр CABAC формата : Да
Параметр ReFrames формата : 9 кадров
Идентификатор кодека : avc1
Идентификатор кодека/Информация : Advanced Video Coding
Продолжительность : 1 ч. 49 м.
Битрейт : 2872 Кбит/сек
Максимальный битрейт : 18,6 Мбит/сек
Ширина : 1280 пикселей
Высота : 676 пикселей
Соотношение сторон : 1,893
Режим частоты кадров : Постоянный
Частота кадров : 23,976 кадра/сек
Цветовое пространство : YUV
Субдискретизация насыщенности : 4:2:0
Битовая глубина : 10 бит
Тип развёртки : Прогрессивная
Бит/(Пиксели*Кадры) : 0.138
Размер потока : 2,21 Гбайт (93%)
Библиотека кодирования : x264 core 130 r2273 b3065e6
Настройки программы : cabac=1 / ref=9 / deblock=1:-2:-2 / analyse=0x3:0x133 / me=umh / subme=9 / psy=1 / psy_rd=0.60:0.00 / mixed_ref=1 / me_range=32 / chroma_me=1 / trellis=2 / 8x8dct=1 / cqm=0 / deadzone=21,11 / fast_pskip=1 / chroma_qp_offset=-2 / threads=12 / lookahead_threads=2 / sliced_threads=0 / nr=0 / decimate=0 / interlaced=0 / bluray_compat=0 / constrained_intra=0 / bframes=9 / b_pyramid=2 / b_adapt=2 / b_bias=0 / direct=3 / weightb=1 / open_gop=0 / weightp=2 / keyint=250 / keyint_min=23 / scenecut=40 / intra_refresh=0 / rc=crf / mbtree=0 / crf=16.0 / qcomp=0.70 / qpmin=10 / qpmax=38 / qpstep=4 / ip_ratio=1.40 / pb_ratio=1.30 / aq=1:1.00
Дата кодирования : UTC 2013-06-02 17:51:44
Дата пометки : UTC 2013-06-02 17:53:32
Аудио
Идентификатор : 2
Формат : AAC
Формат/Информация : Advanced Audio Codec
Профиль формата : LC
Идентификатор кодека : 40
Продолжительность : 1 ч. 49 м.
Вид битрейта : Переменный
Битрейт : 197 Кбит/сек
Максимальный битрейт : 223 Кбит/сек
Каналы : 2 канала
Расположение каналов : Front: L R
Частота : 48,0 КГц
Метод сжатия : С потерями
Размер потока : 155 Мбайт (6%)
Заголовок : [Gears Media]
Язык : Russian
Дата кодирования : UTC 2013-06-02 17:53:21
Дата пометки : UTC 2013-06-02 17:53:32
Скриншоты:
Время раздачи: 24/7
Other forum [Profile] [PM]
Display posts from previous:    
Reply to topic

The time now is: Today 01:08

All times are GMT + 3 Hours



You cannot post new topics in this forum
You cannot reply to topics in this forum
You cannot edit your posts in this forum
You cannot delete your posts in this forum
You cannot vote in polls in this forum
You cannot attach files in this forum
You cannot download files in this forum