Today is a free download without charge Download

Существо / Вечность / The Entity (Сидни Дж. Фьюри / Sidney J. Furie) [1982 г., мистика, триллер, BDRip 720p] MVO + DVO + AVOx3 (Гаврилов, Дольский, Алексеев)

Reply to topic
 
Author
Message

Omen ®

Longevity: 8 years 5 months

Posts: 181087

Торрент-статистика

Post 05-Jun-2013 02:52

[Quote]

Существо / Вечность / The Entity
Год выпуска: 1982
Страна: США
Жанр: мистика, триллер
Продолжительность: 2:05:10
Перевод: Профессиональный (многоголосый, закадровый) Первый канал
Перевод: Профессиональный (двухголосый, закадровый) R5
Перевод: Авторский (одноголосый, закадровый) x3
Субтитры: русские, английские
Режиссер: Сидни Дж. Фьюри / Sidney J. Furie
В ролях: Барбара Херши, Рон Силвер, Жаклин Брукс, Джордж Коу, Маргарет Блай, Алекс Рокко, Аллан Рич, Рэймонд Сингер, Майкл Олдредж, Ричард Брестофф
Описание: Жизнь молодой женщины Карлы Моран превратилась в сплошной кошмар с той самой ночи, когда она в ужасе проснулась от того, что кто-то невидимый избивает и насилует ее. Окружающие не воспринимают всерьез ее страхов, да и сама Карла уже не верит, что это действительно происходит с ней. Но все меняет появление в ее жизни врача-парапсихолога.
Доп. информация:
Качество: BDRip 720p - СЭМПЛ
Формат: MKV
Видео: MPEG-4 AVC Video / 9299 kbps / 1280x546 (2.35:1) / 23.976 fps / High Profile 4.1
Аудио: Dolby Digital Audio Russian 5.1 / 48 kHz / 448 kbps | R5
Аудио: Dolby Digital Audio Russian 2.0 / 48 kHz / 192 kbps | Первый канал
Аудио: Dolby Digital Audio Russian 2.0 / 48 kHz / 192 kbps | Гаврилов
Аудио: Dolby Digital Audio Russian 2.0 / 48 kHz / 192 kbps | Дольский
Аудио: Dolby Digital Audio Russian 5.1 / 48 kHz / 448 kbps | Алексеев
Аудио: Dolby Digital Audio English 5.1 / 48 kHz / 640 kbps
Цитата:
  • за дорожку с R5 и русские субтитры спасибо Jonathan
  • Спасибо Diablo за работу со звуком

Видеоряд от SpunkTV

Source_____________________________________________________________________________Encode




MI

Код:
General
Complete name                    : F:\  -= Фильмы =-\Существо (1982. The Entity).mkv
Format                           : Matroska
File size                        : 10.2 GiB
Duration                         : 2h 5mn
Overall bit rate                 : 11.6 Mbps
Movie name                       : The Entity Release for RuTracker
Encoded date                     : UTC 2013-06-04 18:39:24
Writing application              : mkvmerge v4.9.1 ('Ich will') сборка от Jul 11 2011 23:53:15
Writing library                  : libebml v1.2.1 + libmatroska v1.1.1
Video
ID                               : 1
Format                           : AVC
Format/Info                      : Advanced Video Codec
Format profile                   : [email protected]
Format settings, CABAC           : Yes
Format settings, ReFrames        : 9 frames
Muxing mode                      : Container [email protected]
Codec ID                         : V_MPEG4/ISO/AVC
Duration                         : 2h 5mn
Bit rate                         : 9 272 Kbps
Width                            : 1 280 pixels
Height                           : 546 pixels
Display aspect ratio             : 2.35:1
Frame rate                       : 23.976 fps
Color space                      : YUV
Chroma subsampling               : 4:2:0
Bit depth                        : 8 bits
Scan type                        : Progressive
Bits/(Pixel*Frame)               : 0.553
Stream size                      : 8.11 GiB (80%)
Title                            : The.Entity.1982.720p.BluRay.x264.DD5.1-SpunkTV
Writing library                  : x264 core 128 r2216 198a7ea
Encoding settings                : cabac=1 / ref=9 / deblock=1:2:-2 / analyse=0x3:0x113 / me=umh / subme=9 / psy=1 / psy_rd=1.00:0.00 / mixed_ref=1 / me_range=20 / chroma_me=1 / trellis=2 / 8x8dct=1 / cqm=0 / deadzone=21,11 / fast_pskip=0 / chroma_qp_offset=-3 / threads=6 / lookahead_threads=1 / sliced_threads=0 / nr=0 / decimate=1 / interlaced=0 / bluray_compat=0 / constrained_intra=0 / bframes=3 / b_pyramid=2 / b_adapt=2 / b_bias=0 / direct=1 / weightb=1 / open_gop=0 / weightp=2 / keyint=240 / keyint_min=23 / scenecut=40 / intra_refresh=0 / rc_lookahead=45 / rc=crf / mbtree=1 / crf=16.0 / qcomp=0.60 / qpmin=0 / qpmax=69 / qpstep=4 / vbv_maxrate=35000 / vbv_bufsize=30000 / crf_max=0.0 / nal_hrd=none / ip_ratio=1.30 / aq=1:1.00
Language                         : English
Matrix coefficients              : BT.709-5, BT.1361, IEC 61966-2-4 709, SMPTE RP177
Audio #1
ID                               : 2
Format                           : AC-3
Format/Info                      : Audio Coding 3
Mode extension                   : CM (complete main)
Codec ID                         : A_AC3
Duration                         : 2h 5mn
Bit rate mode                    : Constant
Bit rate                         : 448 Kbps
Channel(s)                       : 6 channels
Channel positions                : Front: L C R, Side: L R, LFE
Sampling rate                    : 48.0 KHz
Bit depth                        : 16 bits
Stream size                      : 401 MiB (4%)
Title                            : R5
Language                         : Russian
Audio #2
ID                               : 3
Format                           : AC-3
Format/Info                      : Audio Coding 3
Mode extension                   : CM (complete main)
Codec ID                         : A_AC3
Duration                         : 2h 5mn
Bit rate mode                    : Constant
Bit rate                         : 192 Kbps
Channel(s)                       : 2 channels
Channel positions                : Front: L R
Sampling rate                    : 48.0 KHz
Bit depth                        : 16 bits
Stream size                      : 172 MiB (2%)
Title                            : Первый канал
Language                         : Russian
Audio #3
ID                               : 4
Format                           : AC-3
Format/Info                      : Audio Coding 3
Mode extension                   : CM (complete main)
Codec ID                         : A_AC3
Duration                         : 2h 5mn
Bit rate mode                    : Constant
Bit rate                         : 192 Kbps
Channel(s)                       : 2 channels
Channel positions                : Front: L R
Sampling rate                    : 48.0 KHz
Bit depth                        : 16 bits
Stream size                      : 172 MiB (2%)
Title                            : Андрей Гаврилов
Language                         : Russian
Audio #4
ID                               : 5
Format                           : AC-3
Format/Info                      : Audio Coding 3
Mode extension                   : CM (complete main)
Codec ID                         : A_AC3
Duration                         : 2h 5mn
Bit rate mode                    : Constant
Bit rate                         : 192 Kbps
Channel(s)                       : 2 channels
Channel positions                : Front: L R
Sampling rate                    : 48.0 KHz
Bit depth                        : 16 bits
Stream size                      : 172 MiB (2%)
Title                            : Андрей Дольский
Language                         : Russian
Audio #5
ID                               : 6
Format                           : AC-3
Format/Info                      : Audio Coding 3
Mode extension                   : CM (complete main)
Codec ID                         : A_AC3
Duration                         : 2h 5mn
Bit rate mode                    : Constant
Bit rate                         : 448 Kbps
Channel(s)                       : 6 channels
Channel positions                : Front: L C R, Side: L R, LFE
Sampling rate                    : 48.0 KHz
Bit depth                        : 16 bits
Stream size                      : 401 MiB (4%)
Title                            : Антон Алексеев
Language                         : Russian
Audio #6
ID                               : 7
Format                           : AC-3
Format/Info                      : Audio Coding 3
Mode extension                   : CM (complete main)
Codec ID                         : A_AC3
Duration                         : 2h 5mn
Bit rate mode                    : Constant
Bit rate                         : 640 Kbps
Channel(s)                       : 6 channels
Channel positions                : Front: L C R, Side: L R, LFE
Sampling rate                    : 48.0 KHz
Bit depth                        : 16 bits
Stream size                      : 573 MiB (6%)
Language                         : English
Text #1
ID                               : 8
Format                           : UTF-8
Codec ID                         : S_TEXT/UTF8
Codec ID/Info                    : UTF-8 Plain Text
Title                            : R5
Language                         : Russian
Text #2
ID                               : 9
Format                           : UTF-8
Codec ID                         : S_TEXT/UTF8
Codec ID/Info                    : UTF-8 Plain Text
Language                         : English
Menu
00:00:00.000                     : en:00:00:00.000
00:07:58.937                     : en:00:07:58.937
00:18:54.717                     : en:00:18:54.717
00:28:05.559                     : en:00:28:05.559
00:42:06.065                     : en:00:42:06.065
00:50:05.836                     : en:00:50:05.836
00:59:27.856                     : en:00:59:27.856
01:09:06.017                     : en:01:09:06.017
01:21:21.960                     : en:01:21:21.960
01:31:06.753                     : en:01:31:06.753
01:40:38.741                     : en:01:40:38.741
01:50:04.556                     : en:01:50:04.556
02:01:41.628                     : en:02:01:41.628

Скриншоты


Other forum [Profile] [PM]
Display posts from previous:    
Reply to topic

The time now is: Today 20:07

All times are GMT + 3 Hours



You cannot post new topics in this forum
You cannot reply to topics in this forum
You cannot edit your posts in this forum
You cannot delete your posts in this forum
You cannot vote in polls in this forum
You cannot attach files in this forum
You cannot download files in this forum