Today is a free download without charge Download

Linkin Park - ROCK im PARK 03.06.2012 (16 songs) [2012, Alternative Rock, HDTV 720p]

Reply to topic
 
Author
Message

Omen ®

Longevity: 8 years 4 months

Posts: 181087

Торрент-статистика

Post 05-Jun-2013 02:52

[Quote]

Linkin Park - ROCK im PARK 03.06.2012 (16 songs)
Жанр: Alternative Rock
Продолжительность: 59m:29s
Год выпуска: 2012
Описание:
June 03, 2012
Rock im Park
Nürnberg, Germany

Треклист:
01. Given Up
02. Faint
03. From The Inside
04. Somewhere I Belong
05. Numb (video screen visuals)
06. LIES GREED MISERY
07. Points Of Authority
08. Waiting For The End (with 'Until It Breaks' verse)
09. Breaking The Habit (video screen visuals)
10. LOATR/SOTD/Iridescent (Ballad Medley)
11. BURN IT DOWN
12. What I've Done
13. New Divide
14. In The End
15. Papercut
16. One Step Closer
PS Соединял сам части концерта, результат хорош, но перед и после Points Of Authority немного рывками идет картинка 2 секунды где толпа, но я соединял специально где толпа, а не группа крупным планом была, пользовался VideoReDo TVSuite V4. В других программах была жесть с картинкой и рассихрон звука сильный. Я на 99% уверен, что лучше вряд ли у кого выйдет.
Качество: HDTV 720p
Контейнер: TS
Видео кодек: H.264
Видео: AVC | 1280x720 | 11.9 Mbps | 50.000 fps
Аудио: MP2 | 192 Kbps | 2 ch | 48.0 KHz
Аудио 2: AC-3 | 448 Kbps | 2 ch | 48.0 KHz

Отчёт MediaInfo / BDInfo

GeneralID : 1 (0x1)Complete name : Linkin Park - Rock im Park 2012-06-03 (1h-3m version) BR HD 720p.tsFormat : MPEG-TSFile size : 5.79 GiBDuration : 1h 2mnOverall bit rate mode : VariableOverall bit rate : 13.2 Mbps
VideoID : 4113 (0x1011)Menu ID : 1 (0x1)Format : AVCFormat/Info : Advanced Video CodecFormat profile : [email protected] settings, CABAC : YesFormat settings, ReFrames : 4 framesCodec ID : 27Duration : 1h 2mnBit rate mode : VariableBit rate : 11.9 MbpsMaximum bit rate : 40.0 MbpsWidth : 1 280 pixelsHeight : 720 pixelsDisplay aspect ratio : 16:9Frame rate : 50.000 fpsColor space : YUVChroma subsampling : 4:2:0Bit depth : 8 bitsScan type : ProgressiveBits/(Pixel*Frame) : 0.258Stream size : 5.22 GiB (90%)
Audio #1ID : 4352 (0x1100)Menu ID : 1 (0x1)Format : MPEG AudioFormat version : Version 1Format profile : Layer 2Codec ID : 3Duration : 1h 2mnBit rate mode : ConstantBit rate : 192 KbpsChannel(s) : 2 channelsSampling rate : 48.0 KHzCompression mode : LossyStream size : 86.3 MiB (1%)Language : German
Audio #2ID : 4353 (0x1101)Menu ID : 1 (0x1)Format : AC-3Format/Info : Audio Coding 3Mode extension : CM (complete main)Format settings, Endianness : BigCodec ID : 129Duration : 1h 2mnBit rate mode : ConstantBit rate : 448 KbpsChannel(s) : 2 channelsChannel positions : Front: L RSampling rate : 48.0 KHzBit depth : 16 bitsCompression mode : LossyStream size : 201 MiB (3%)Language : German

Скриншоты

Other forum [Profile] [PM]
Display posts from previous:    
Reply to topic

The time now is: Today 05:53

All times are GMT + 3 Hours



You cannot post new topics in this forum
You cannot reply to topics in this forum
You cannot edit your posts in this forum
You cannot delete your posts in this forum
You cannot vote in polls in this forum
You cannot attach files in this forum
You cannot download files in this forum