Today is a free download without charge Download

Приключения домовёнка Кузи (Дом для Кузьки, Приключения домовёнка, Сказка для Наташи, Возвращение домовёнка) (Аида Зябликова) [1984-1987 г., мультфильм, DVB]

Reply to topic
 
Author
Message

Omen ®

Longevity: 8 years 11 months

Posts: 181086

Торрент-статистика

Post 04-Jun-2013 22:10

[Quote]

Приключения домовёнка Кузи
Жанр: мультфильм
Год выпуска: 1984-1987
Продолжительность: 00:53:37 (00:17:50+00:17:05+00:09:50+00:09:32)
Режиссёр: Аида Зябликова
Описание: Фильм о приключениях домового Кузи у Бабы-Яги, которая выкрала его для того, чтобы он принес ей счастье ...
1. «Дом для Кузьки» (1984 г.)
«Дом для Кузьки» — первый мультфильм по очерёдности появления и второй мультфильм по сюжету из серии о домовёнке Кузе (по мотивам сказки Т. Александровой "Кузька в новой квартире").
В этой серии девочка Наташа знакомится с домовёнком Кузькой, которому пришлось переселиться к ней в квартиру. Старый дом Кузьмы снесли, и ему с другом Нафаней пришлось искать новое жилище. Домовой учит Наташу жить правильно, по-домовитому. А Наташа помогает Кузьке приспосабливаться к современной жизни. Наташа и домовёнок становятся настоящими друзьями.
В конце мультфильма звучит песня на стихи Валентина Берестова.
2. «Приключения домовёнка» (1985 г.)
В этой серии мы узнаём, как жил домовёнок до того, как попал к Наташе. Как Кузьму похитила Баба-Яга, надеясь на счастливую жизнь с хозяйственным домовым, как он попал в пень к Лешим, а потом стал "первым гнездовым"...
3. «Сказка для Наташи» (1986 г.)
Домовёнок сердится на Наташу, считая её бесхозяйственной, а в это время Баба-Яга вынашивает план похищения Кузьки. Она приходит домой к девочке под видом "Кузенькиной бабушки" и хитростью выкрадывает Кузьму.
4. «Возвращение домовёнка» (1987 г.)
Ворона решает спасти домовёнка и отправляется за ним в лес к Бабе-Яге. А та решает накормить Кузьку отворотным зельем, чтобы он на веки вечные остался с ней. Кузьма совершает побег, в результате которого жизнь всех главных героев изменяется к лучшему: ворона понимает, что счастье – это "когда у тебя все дома", Наташа снова обретает любимого друга, а Баба-Яга встречает нового домового, ещё более талантливого, чем Кузьма...

Цитаты использованные в мультфильме

— Ой, бяда-бяда! Огорчение!
— Спасибо этому дому, пойду к другому.
— Нафа-аня! Волшебный сундучок украли! Со сказками!
— Заходи, гостем будешь.
— Это я не ем, я не козёл.
— Я — птица вольная! Куда хочу — туда лечу!
— Счастье — это когда все дома!
— Мусор вынесла? Умница, дочка!
— Ой, прямо дяденьке на шляпу… ага.
— Ну и что! Отряхнулся — и пошёл себе дальше!
— Кузенька! Вернись, яхонтовый мой!
— Ой, дедушка, птицы летят!..
— Это хорошо, это порядок.
— Смотри, и домовёнок летит!..
— А вот это непорядок.
— Говорят, вам счастье привалило? (ворона)
— Бессовестно врут! (кот)
— Бабе Яге счастье привалило!
— Завела дармоеда!
— Хочется чего-то, сам не знаю чего…
— Ремняу-мяу!
— Я чего сказал? Хочу ватрушек! А ты чего напекла?! Вот ешь теперь сама!
— Хлеб чёрный… И фунта не будет…
— Эй, ворона, весна скоро?
— Опомнился! Май на носу!
— Кем ты был? Последний домовой, а стал первый гнездовой!
— Ел недосыта, спал без просыпа… Недосыпал, в общем, я!
— Я не жадный, я домовитый.
— Дедушка, чего он дразнится?
— Я не могу быть понарошку, я девочка!
— А я скажу: «Не пойдёшь домой — поймаю и съем!»
— А он скажет: «Подавишься».
— Хочется чего-то, сам не знаю чего. Половички, что ли, снежком почистить?
Доп. информация:

Трансляция спутникового канала: "Карусель"
Качество видео: DVB
Формат видео: MPEG-PS
Видео: MPEG2 Video, 720x576, 25 fps, ~3400-3600 kbps
Аудио: MPEG Audio, 2 сh, 48 kHz, 192 kbps

MediaInfo

General
Complete name : F:\TORRENT\Приключения домовёнка Кузи. (1984-1987)_DVB by SLuMeP\1с. Дом для Кузьки.mpg
Format : MPEG-PS
File size : 492 MiB
Duration : 17mn 51s
Overall bit rate mode : Variable
Overall bit rate : 3 851 Kbps
Writing library : (c) 1998-2010 Womble Multimedia, Inc. / MPEG Video Wizard DVD 5.0.0.114 (01/2010) / Apr 20 2010
Video
ID : 224 (0xE0)
Format : MPEG Video
Format version : Version 2
Format profile : [email protected]
Format settings, BVOP : Yes
Format settings, Matrix : Custom
Duration : 17mn 50s
Bit rate mode : Variable
Bit rate : 3 582 Kbps
Maximum bit rate : 5 000 Kbps
Width : 720 pixels
Height : 576 pixels
Display aspect ratio : 4:3
Frame rate : 25.000 fps
Standard : PAL
Color space : YUV
Chroma subsampling : 4:2:0
Bit depth : 8 bits
Scan type : Interlaced
Scan order : Top Field First
Compression mode : Lossy
Bits/(Pixel*Frame) : 0.346
Stream size : 457 MiB (93%)
Writing library : (c) 1998-2010 Womble Multimedia, Inc. / MPEG Video Wizard DVD 5.0.0.114 (01/2010) / Apr 20 2010
Audio
ID : 192 (0xC0)
Format : MPEG Audio
Format version : Version 1
Format profile : Layer 2
Duration : 17mn 51s
Bit rate mode : Constant
Bit rate : 192 Kbps
Channel(s) : 2 channels
Sampling rate : 48.0 KHz
Compression mode : Lossy
Delay relative to video : -40ms
Stream size : 24.5 MiB (5%)

Скриншоты

Other forum [Profile] [PM]
Similar theme
Forum Topic Author Torrent Replies Last Post
./templates/default/images/folder_dl.gif Фильмы 2001-2010 Римские приключения / To Rome with Love (Вуди Аллен)[2012, Мелодрама, комедия] BDRip 720p| Лицензия| DeadMmau5
1 | 0

0 | 605

9

2012-12-05 19:42
DeadMmau5 Latest
./templates/default/images/folder_dl.gif Историческая литература Андрей Болотов | Жизнь и приключения Андрея Болотова, описанныя самим им для своих потомков. Том 1-3 (2013) [PDF] Omen
1 | 0

0 | 2278

6

2015-01-01 15:06
Omen Latest
./templates/default/images/folder_dl.gif Обучающее видео Учебный центр 1C | Использование прикладного решения 1С Розница 8.2 Редакция 2 (2015) PCRec Varius
1 | 0

0 | 2509

44

2015-07-16 05:16
Varius Latest
./templates/default/images/folder_dl.gif Фильмы в формате 3D Пираты Карибского моря: На странных берегах в 3Д / Pirates of the Caribbean: On Stranger Tides 3D (Роб Маршалл / Rob Marshall) [2011, фэнтези, боевик, комедия, приключения, BDrip, 720p] Full SideBySide / Полная горизонтальная стереопара Omen
1 | 0

0 | 729

0

2015-10-18 21:02
Omen Latest
./templates/default/images/folder_dl.gif Фильмы в формате 3D Боги Египта 3Д / Gods of Egypt 3D (Алекс Пройас / Alex Proyas) [2016, США, фэнтези, боевик, приключения, Blu-ray disc 1080p] [RUS] DUB BD3D Omen
1 | 0

0 | 1274

0

2016-07-21 01:01
Omen Latest
./templates/default/images/folder_dl.gif Зарубежное кино Изгой-один: Звёздные войны. Истории / Rogue One: A Star Wars Story (Гарет Эдвардс) [2016 г., фантастика, боевик, приключения, BDRip 1080p] DUB | Чистый звук Theseus
1 | 0

0 | 7726

7

2017-03-22 11:05
Theseus Latest
./templates/default/images/folder_dl.gif Фильмы 2011-2020 Терминатор: Тёмные судьбы / Terminator: Dark Fate (Тим Миллер) [2019, Фантастика, боевик, приключения, BDRip-AVC] [DUB] [iTunes] Орлов Владимир
1 | 0

0 | 412

0

2020-01-31 08:36
Орлов Владимир Latest
./templates/default/images/folder_dl.gif Зарубежное кино (HD Video) Зов предков / The Call of the Wild (Крис Сандерс) [2020, Драма, приключения, семейный, BDRip 1080p) Dub (iTunes) + MVO (HDRezka Studio) + Original + Sub (Rus/Eng) Kon912
1 | 0

0 | 89

0

2020-06-17 22:37
Kon912 Latest
Display posts from previous:    
Reply to topic

The time now is: Today 17:31

All times are GMT + 3 Hours



You cannot post new topics in this forum
You cannot reply to topics in this forum
You cannot edit your posts in this forum
You cannot delete your posts in this forum
You cannot vote in polls in this forum
You cannot attach files in this forum
You cannot download files in this forum