Today is a free download without charge Download

Dio - Finding the Sacred Heart [2013, Hard rock, BDRip 720p]

Reply to topic
 
Author
Message

Omen ®

Longevity: 8 years 3 months

Posts: 181087

Торрент-статистика

Post 04-Jun-2013 22:10

[Quote]

Dio - Finding the Sacred Heart
Жанр: Hard rock, Heavy metal
Продолжительность: 1:40:38
Год выпуска: 2013
Описание:
“Finding The Sacred Heart – Live In Philly 1986” was filmed at The Spectrum in Philadelphia on 17 June 1986 during the second leg of the “Sacred Heart” tour, which featured new guitarist Craig Goldy. The show was issued in an edited form first on VHS and then DVD. Now for the first time the full concert is being released in the original running order, restored from the original 16mm film and with remastered sound. It’s an extraordinary live show with a giant animatronic dragon towering over the stage and spectacular lasers and pyrotechnics. Ronnie James Dio is in fine voice as ever and the band deliver a blistering live performance featuring tracks from their first three albums alongside Black Sabbath and Rainbow classics. This will be a must-have release for any Dio fan!
Band:
Ronnie James Dio - Vocals
Vinny Appice - Drums
Jimmy Bain - Bass
Craig Goldy Guitars
Claude Schnell - Keyboards
Tracfklist:
01. Draco Ignis
02. King Of Rock And Roll
03. Like The Beat Of A Heart
04. Don’t Talk To Strangers
05. Hungry For Heaven
06. Medley: The Last In Line / Children Of The Sea / Holy Diver / The Last In Line (reprise)
07. Drum Solo
08. Heaven And Hell
09. Keyboard Solo
10. Guitar Solo
11. Sacred Heart
12. Medley: Rock ‘n’ Roll Children / Long Live Rock ‘n’ Roll / Man On The Silver Mountain / Rock ‘n’ Roll Children (reprise)
13. Time To Burn
14. Stand Up And Shout
15. Rainbow In The Dark
16. We Rock
Доп. информация:
Release: 27:05:2013
EAN: 5051300518172
Label: Eagle Vision
Wikipedia http://www.youtube.com/watch?v=JRupKpQvrmI
Качество: BDRip 720p
Контейнер: MKV
Видео кодек: H.264
Аудио кодек: DTS
Видео: MPeg4 1280x720 29,97fps 16:9 6843Kbps
Аудио: DTS 5.1 48KHz 1510Kbps

Отчёт MediaInfo / BDInfo

GeneralUnique ID : 163572660590040310836759075652721553942 (0x7B0EF2D1A3B60898C8107A87DE6DB216)Complete name : \Dio_SacredHeart.mkvFormat : MatroskaFormat version : Version 2File size : 5.99 GiBDuration : 1h 40mnOverall bit rate : 8 522 KbpsWriting application : Lavf54.16.104Writing library : Lavf54.16.104LABEL : Chapter #1TCHAPTER : 138900576Language : eng
VideoID : 1Format : MPEG-4 VisualFormat profile : Advanced [email protected] settings, BVOP : NoFormat settings, QPel : NoFormat settings, GMC : No warppointsFormat settings, Matrix : Default (H.263)Codec ID : V_MPEG4/ISO/ASPCodec ID/Info : Advanced Simple ProfileDuration : 1h 40mnBit rate : 6 843 KbpsWidth : 1 280 pixelsHeight : 720 pixelsDisplay aspect ratio : 16:9Frame rate : 29.970 fpsColor space : YUVChroma subsampling : 4:2:0Bit depth : 8 bitsScan type : ProgressiveCompression mode : LossyBits/(Pixel*Frame) : 0.248Stream size : 4.81 GiB (80%)Writing library : Lavc54.40.100Language : unDefault : YesForced : NoPART_NUMBER : 0
AudioID : 2Format : DTSFormat/Info : Digital Theater SystemsCodec ID : A_DTSDuration : 1h 40mnBit rate mode : ConstantBit rate : 1 510 KbpsChannel(s) : 6 channelsChannel positions : Front: L C R, Side: L R, LFESampling rate : 48.0 KHzBit depth : 16 bitsCompression mode : LossyStream size : 1.06 GiB (18%)Language : EnglishDefault : YesForced : NoPART_NUMBER : 1

Скриншоты

Other forum [Profile] [PM]
Display posts from previous:    
Reply to topic

The time now is: Today 12:05

All times are GMT + 3 Hours



You cannot post new topics in this forum
You cannot reply to topics in this forum
You cannot edit your posts in this forum
You cannot delete your posts in this forum
You cannot vote in polls in this forum
You cannot attach files in this forum
You cannot download files in this forum