Today is a free download without charge Download

Снежная королева ( Максим Свешников ) (2012, Мультфильм, фэнтези, приключения, семейный ) [H.264] BDRip

Reply to topic
 
Author
Message

Витек1 ®

Gender:

Longevity: 8 years 9 months

Posts: 451

Location: Житомир

Торрент-статистика

Post 04-Jun-2013 21:38

[Quote]

Снежная королева - Русское название: Снежная королева
Производство: Россия / Инлэй Фильм
Год выпуска: 2012
Жанр: Мультфильм, фэнтези, приключения, семейный
Описание:
В стремлении сотворить Новый мир — холодный и практичный, где четкость линий призвана заменить эмоции, а северный ветер должен остудить людские души, Снежная Королева избавляется от всех представителей творческих профессий. Маленькой и смелой Герде, отправившейся в опасное путешествие, чтобы спасти своего брата Кая, предстоит столкнуться с этим холодным миром Снежной Королевы. Преодолевая все сложности и преграды на пути к своей цели, Герда не только обретает семью, но и веру в себя, находит поддержку новых друзей.
Режиссер: Максим Свешников, Владлен Барбэ
Продюсер: Юрий Москвин, Владимир Николаев, Ольга Синельщикова
Актеры: Иван Охлобыстин, Нюша Шурочкина, Анна Ардова, Рамиля Искандер, Дмитрий Нагиев, Лиза Арзамасова, Галина Тюнина, Юрий Стоянов, Людмила Артемьева, Михаил Тихонов
Дата мировой премьеры: 1 января 2013
Дата российской премьеры: 31 декабря 2012, «Bazelevs Distribution»
Дата выхода DVD релиза: 31 января 2013, «Мистерия Звука» Продолжительность: 01:17:58
Видеокодек: MPEG-4 AVC/H.264
Битрейт видео: ~2799 kb/s
Размер кадра: 1024x576
Качество видео: ВDRip
Аудиокодек: АС3 6 ch
Битрейт аудио: 448 kb/s

MediaInfo:

Общее
Уникальный идентификатор : 218508318676655833029157786693351590901 (0xA4632BE11D08597895EA4EA3CB754BF5)
Полное имя : E:\Загрузка\Snejnaya.koroleva.2012.x264.BDRip.(AVC).mkv
Формат : Matroska
Версия формата : Version 4 / Version 2
Размер файла : 1,75 Гбайт
Продолжительность : 1 ч. 17 м.
Общий поток : 3246 Кбит/сек
Название фильма : Снежная королева (2012)
Дата кодирования : UTC 2013-02-01 02:22:28
Программа кодирования : mkvmerge v6.0.0 ('Coming Up For Air') built on Jan 20 2013 09:52:00
Библиотека кодирования : libebml v1.3.0 + libmatroska v1.4.0
Видео
Идентификатор : 1
Формат : AVC
Формат/Информация : Advanced Video Codec
Профиль формата : [url=mailto:[email protected]][email protected][/url]
Параметр CABAC формата : Да
Параметр ReFrames формата : 8 кадров
Идентификатор кодека : V_MPEG4/ISO/AVC
Продолжительность : 1 ч. 17 м.
Битрейт : 2799 Кбит/сек
Ширина : 1024 пикселя
Высота : 576 пикселей
Соотношение сторон : 16:9
Частота кадров : 24,000 кадра/сек
Цветовое пространство : YUV
Субдискретизация насыщенности : 4:2:0
Битовая глубина : 8 бит
Тип развёртки : Прогрессивная
Бит/(Пиксели*Кадры) : 0.198
Размер потока : 1,48 Гбайт (84%)
Библиотека кодирования : x264 core 129 r2230 1cffe9f
Настройки программы : cabac=1 / ref=8 / deblock=1:-3:-3 / analyse=0x3:0x113 / me=umh / subme=10 / psy=1 / psy_rd=1.00:0.00 / mixed_ref=1 / me_range=16 / chroma_me=1 / trellis=2 / 8x8dct=1 / cqm=0 / deadzone=21,11 / fast_pskip=1 / chroma_qp_offset=-2 / threads=4 / lookahead_threads=1 / sliced_threads=0 / nr=0 / decimate=1 / interlaced=0 / bluray_compat=0 / constrained_intra=0 / bframes=10 / b_pyramid=2 / b_adapt=2 / b_bias=0 / direct=3 / weightb=1 / open_gop=0 / weightp=2 / keyint=240 / keyint_min=24 / scenecut=40 / intra_refresh=0 / rc=2pass / mbtree=0 / bitrate=2799 / ratetol=1.0 / qcomp=0.60 / qpmin=0 / qpmax=69 / qpstep=4 / cplxblur=20.0 / qblur=0.5 / ip_ratio=1.40 / pb_ratio=1.30 / aq=1:0.80
Язык : Russian
Default : Да
Forced : Нет
Аудио
Идентификатор : 2
Формат : AC-3
Формат/Информация : Audio Coding 3
Расширение режима : CM (complete main)
Параметр Endianness формата : Big
Идентификатор кодека : A_AC3
Продолжительность : 1 ч. 17 м.
Вид битрейта : Постоянный
Битрейт : 448 Кбит/сек
Каналы : 6 каналов
Расположение каналов : Front: L C R, Side: L R, LFE
Частота : 48,0 КГц
Битовая глубина : 16 бит
Метод сжатия : С потерями
Размер потока : 248 Мбайт (14%)
Язык : Russian
Default : Да
Forced : Нет
Меню
00:00:00.000 : :Chapter 01
00:09:25.291 : :Chapter 02
00:22:49.625 : :Chapter 03
00:31:46.166 : :Chapter 04
00:46:44.833 : :Chapter 05
01:00:24.333 : :Chapter 06
Скриншоты:
         
-Приятного просмотра и не забываем говорить СПАСИБО...-

_________________
Скачал сам, дай скачать другому!!!Не забудь сказать -
Other forum [Profile] [PM]
Display posts from previous:    
Reply to topic

The time now is: Today 18:37

All times are GMT + 3 Hours



You cannot post new topics in this forum
You cannot reply to topics in this forum
You cannot edit your posts in this forum
You cannot delete your posts in this forum
You cannot vote in polls in this forum
You cannot attach files in this forum
You cannot download files in this forum