Today is a free download without charge Download

Снежная королева ( Максим Свешников ) (2012, Мультфильм, фэнтези, приключения, семейный ) BDRip

Reply to topic
 
Author
Message

Витек1 ®

Gender:

Longevity: 7 years 9 months

Posts: 451

Location: Житомир

Торрент-статистика

Post 04-Jun-2013 21:33

[Quote]

Снежная королева - Русское название: Снежная королева
Производство: Россия / Инлэй Фильм
Год выпуска: 2012
Жанр: Мультфильм, фэнтези, приключения, семейный
Описание:
В стремлении сотворить Новый мир — холодный и практичный, где четкость линий призвана заменить эмоции, а северный ветер должен остудить людские души, Снежная Королева избавляется от всех представителей творческих профессий. Маленькой и смелой Герде, отправившейся в опасное путешествие, чтобы спасти своего брата Кая, предстоит столкнуться с этим холодным миром Снежной Королевы. Преодолевая все сложности и преграды на пути к своей цели, Герда не только обретает семью, но и веру в себя, находит поддержку новых друзей.
Режиссер: Максим Свешников, Владлен Барбэ
Продюсер: Юрий Москвин, Владимир Николаев, Ольга Синельщикова
Актеры: Иван Охлобыстин, Нюша Шурочкина, Анна Ардова, Рамиля Искандер, Дмитрий Нагиев, Лиза Арзамасова, Галина Тюнина, Юрий Стоянов, Людмила Артемьева, Михаил Тихонов
Дата мировой премьеры: 1 января 2013
Дата российской премьеры: 31 декабря 2012, «Bazelevs Distribution»
Дата выхода DVD релиза: 31 января 2013, «Мистерия Звука»
Продолжительность: 01:17:21
Видеокодек: XviD
Битрейт видео: ~2067 kb/s
Размер кадра: 720x400
Качество видео: ВDRip
Аудиокодек: АС3 6 ch
Битрейт аудио: 448 kb/s

MediaInfo:

Общее
Полное имя : E:\Загрузка\Snezhnaja.koroleva.2012.O.BDRip.avi
Формат : AVI
Формат/Информация : Audio Video Interleave
Размер файла : 1,36 Гбайт
Продолжительность : 1 ч. 17 м.
Общий поток : 2525 Кбит/сек
Название фильма : Snezhnaja.koroleva.2012.O.BDRip
Жанр : Animation | Fantasy
Программа кодирования : VirtualDubMod 1.5.10.2 (build 2540/release)
Формат оригинала/Имя : Cartoon
Правообладатель : http://ironclub.tv/
Видео
Идентификатор : 0
Формат : MPEG-4 Visual
Профиль формата : Advanced [email protected]
Параметр BVOP формата : 1
Параметр QPel формата : Нет
Параметр GMC формата : Без точки перехода
Параметр матрицы формата : Выборочная
Идентификатор кодека : XVID
Идентификатор кодека/Подсказка : XviD
Продолжительность : 1 ч. 17 м.
Битрейт : 2068 Кбит/сек
Ширина : 720 пикселей
Высота : 400 пикселей
Соотношение сторон : 16:9
Частота кадров : 24,000 кадра/сек
Цветовое пространство : YUV
Субдискретизация насыщенности : 4:2:0
Битовая глубина : 8 бит
Тип развёртки : Прогрессивная
Метод сжатия : С потерями
Бит/(Пиксели*Кадры) : 0.299
Размер потока : 1,12 Гбайт (82%)
Библиотека кодирования : XviD 1.2.1 (UTC 2008-12-04)
Аудио
Идентификатор : 1
Формат : AC-3
Формат/Информация : Audio Coding 3
Расширение режима : CM (complete main)
Параметр Endianness формата : Big
Идентификатор кодека : 2000
Продолжительность : 1 ч. 17 м.
Вид битрейта : Постоянный
Битрейт : 448 Кбит/сек
Каналы : 6 каналов
Расположение каналов : Front: L C R, Side: L R, LFE
Частота : 48,0 КГц
Битовая глубина : 16 бит
Метод сжатия : С потерями
Размер потока : 248 Мбайт (18%)
Выравнивание : Разделение по промежуткам
Продолжительность промежутка : 42 мс. (1,00 видеокадр)
Время предзагрузки промежутка : 500 мс.
Скриншоты:
         
-Приятного просмотра и не забываем говорить СПАСИБО...-

_________________
Скачал сам, дай скачать другому!!!Не забудь сказать -
Other forum [Profile] [PM]
Display posts from previous:    
Reply to topic

The time now is: Today 13:30

All times are GMT + 3 Hours



You cannot post new topics in this forum
You cannot reply to topics in this forum
You cannot edit your posts in this forum
You cannot delete your posts in this forum
You cannot vote in polls in this forum
You cannot attach files in this forum
You cannot download files in this forum