Today is a free download without charge Download

Звездный путь 4: Дорога домой / Star Trek IV: The Voyage Home (Леонард Нимой) (фантастика, комедия, приключения, 1986) BDRip [720p]

Reply to topic
 
Author
Message

Omen ®

Longevity: 8 years 5 months

Posts: 181087

Торрент-статистика

Post 04-Jun-2013 17:44

[Quote]

Звездный путь 4: Дорога домой
Star Trek IV: The Voyage Home
- Русское название: Звездный путь 4: Дорога домой
Оригинальное название: Star Trek IV: The Voyage Home
Год выпуска: 1986
Производство: США
Жанр: фантастика, комедия, приключения
Перевод: Многоголосый закадровый (SDI Media) + Одноголосый закадровый (Ю. Живов) + Оригинал
Субтитры: русские-Релиз группы: R.G. Shadoof
Автор рипа : What You Gonna Do ?
-Режиссер: Леонард Нимой
Актеры: Уильям Шетнер, Леонард Нимой, ДеФорест Келли, Джеймс Дуэн, Джордж Такей, Уолтер Кениг, Нишелль Николс, Джейн Уайатт, Кэтрин Хикс, Марк Ленард- -Описание фильма: Возвращаясь домой с Вулкана на экспроприированном клингонском космическом корабле, Керк и его команда заранее готовятся к худшему. Хотя долг чести выполнен, и Спок снова с нами живой и здоровый, у команды нет более причин радоваться, особенно когда они начинают вспоминать о попутно содеянных проступках.
Неподчинение приказу, угнанный, а затем и самоликвидированный «Энтерпрайз», саботированный «Эксцельсиор» - все это заставляет их строить отнюдь не радужные предположения относительно того, чем их встретит Земля.
Но реальность оказывается куда мрачнее - к Земле приблизился огромный космический корабль неизвестной конструкции, транслирующий на планету запросы на языке китов, к 23-му веку окончательно вымерших. Странный корабль имеет свойство воздействовать на погоду, которая устраивает на Земле сплошные ливни, грозы, ураганы и смерчи. Анализ ситуации позволяет предположить, что если благодаря какому-то чуду на Земле снова появятся киты, то это стабилизирует ситуацию и разрешит надвигающийся конфликт.
И как вы думаете, кто способен сотворить чудо? Естественно, капитан Керк и его команда! Они готовы отправиться в прошлое для того, чтобы найти китов и доставить их в будущее ради спасения всей планеты.
Их путешествие начинается...
-Исходник: Звездный путь 4: Дорога домой / Star Trek IV: The Voyage Home (1986) 1080p BD-Remux
Продолжительность: 01:58:51
Качество видео: BDRip 720p
Видеокодек: x264
Битрейт видео: ~3866 kbps
Размер кадра: 1280x544
Аудио #1: Русский: 48 kHz, AC3, 2/0 (L,R) ch, ~192.00 kbps avg |Многоголосый закадровый, SDI Media|
Аудио #2: Русский: 48 kHz, AC3, 3/2 (L,C,R,l,r) + LFE ch, ~448.00 kbps avg |Одноголосый закадровый, Ю. Живов|
Аудио #3: Английский: 48 kHz, DTS 5.1, ~1536.00 kbps avg
-

Log

Код:
---[NoImage] x264 [info]: frame I:1130  Avg QP:15.67  size: 93794
---[NoImage] x264 [info]: frame P:33230 Avg QP:17.11  size: 45595
---[NoImage] x264 [info]: frame B:136617 Avg QP:19.15  size: 14138
---[NoImage] x264 [info]: consecutive B-frames:  1.1%  1.0%  4.2% 14.2% 16.6% 55.6%  5.0%  0.9%  0.6%  0.4%  0.2%  0.2%  0.2%
---[NoImage] x264 [info]: mb I  I16..4:  4.1% 82.3% 13.6%
---[NoImage] x264 [info]: mb P  I16..4:  1.6% 21.0%  1.2%  P16..4: 25.8% 33.6% 14.9%  0.0%  0.0%    skip: 1.9%
---[NoImage] x264 [info]: mb B  I16..4:  0.8%  1.7%  0.1%  B16..8: 34.5% 21.9%  4.1%  direct: 6.5%  skip:30.3%  L0:41.8% L1:43.2% BI:15.0%
---[NoImage] x264 [info]: 8x8 transform intra:81.2% inter:56.5%
---[NoImage] x264 [info]: coded y,uvDC,uvAC intra: 85.1% 97.1% 92.5% inter: 30.8% 28.5% 9.2%
---[NoImage] x264 [info]: i16 v,h,dc,p: 84%  7%  3%  5%
---[NoImage] x264 [info]: i8 v,h,dc,ddl,ddr,vr,hd,vl,hu:  8%  7% 12% 10% 14% 12% 12% 11% 13%
---[NoImage] x264 [info]: i4 v,h,dc,ddl,ddr,vr,hd,vl,hu:  9%  9% 12%  8% 14% 13% 13% 10% 12%
---[NoImage] x264 [info]: i8c dc,h,v,p: 56% 18% 14% 13%
---[NoImage] x264 [info]: Weighted P-Frames: Y:5.9% UV:2.9%
---[NoImage] x264 [info]: ref P L0: 40.0% 10.8% 19.9%  6.9%  7.0%  4.5%  4.9%  2.5%  3.1%  0.3%  0.0%
---[NoImage] x264 [info]: ref B L0: 81.8%  8.9%  3.4%  2.0%  1.4%  1.3%  0.7%  0.4%
---[NoImage] x264 [info]: ref B L1: 96.3%  3.7%
---[NoImage] x264 [info]: kb/s:3985.37

MediaInfo

Код:
Формат                                   : Matroska
Версия формата                           : Version 2
Размер файла                             : 5,10 Гбайт
Продолжительность                        : 1 ч. 58 м.
Общий поток                              : 6137 Кбит/сек
Название фильма                          : Star Trek IV: The Voyage Home
Дата кодирования                         : UTC 2013-06-02 12:28:01
Программа кодирования                    : mkvmerge v4.0.0 ('The Stars were mine') сборка от Jun  6 2010 16:18:42
Библиотека кодирования                   : libebml v1.0.0 + libmatroska v1.0.0
Видео
Идентификатор                            : 1
Формат                                   : AVC
Формат/Информация                        : Advanced Video Codec
Профиль формата                          : [url=mailto:[email protected]][email protected][/url]
Параметр CABAC формата                   : Да
Параметр ReFrames формата                : 9 кадров
Идентификатор кодека                     : V_MPEG4/ISO/AVC
Продолжительность                        : 1 ч. 58 м.
Битрейт                                  : 3866 Кбит/сек
Ширина                                   : 1280 пикселей
Высота                                   : 544 пикселя
Соотношение сторон                       : 2,35:1
Режим частоты кадров                     : Постоянный
Частота кадров                           : 23,976 кадра/сек
Цветовое пространство                    : YUV
Субдискретизация насыщенности            : 4:2:0
Битовая глубина                          : 8 бит
Тип развёртки                            : Прогрессивная
Бит/(Пиксели*Кадры)                      : 0.232
Размер потока                            : 3,21 Гбайт (63%)
Заголовок                                : Encode: WYGD | R.G. Shadoof | /*spam*/
Библиотека кодирования                   : x264 core 130 r2273 b3065e6
Настройки программы                      : cabac=1 / ref=9 / deblock=1:-3:-2 / analyse=0x3:0x113 / me=umh / subme=11 / psy=1 / psy_rd=1.01:0.03 / mixed_ref=1 / me_range=48 / chroma_me=1 / trellis=2 / 8x8dct=1 / cqm=0 / deadzone=21,11 / fast_pskip=0 / chroma_qp_offset=-5 / threads=6 / lookahead_threads=1 / sliced_threads=0 / nr=0 / decimate=1 / interlaced=0 / bluray_compat=0 / constrained_intra=0 / bframes=12 / b_pyramid=2 / b_adapt=2 / b_bias=0 / direct=1 / weightb=1 / open_gop=0 / weightp=2 / keyint=240 / keyint_min=23 / scenecut=40 / intra_refresh=0 / rc_lookahead=60 / rc=crf / mbtree=0 / crf=17.5 / qcomp=0.60 / qpmin=10 / qpmax=69 / qpstep=4 / vbv_maxrate=62500 / vbv_bufsize=50000 / crf_max=0.0 / nal_hrd=none / ip_ratio=1.40 / pb_ratio=1.30 / aq=1:0.90
Язык                                     : English
Default                                  : Нет
Forced                                   : Нет
Аудио #1
Идентификатор                            : 2
Формат                                   : AC-3
Формат/Информация                        : Audio Coding 3
Профиль формата                          : Dolby Digital
Расширение режима                        : CM (complete main)
Параметр Endianness формата              : Big
Идентификатор кодека                     : A_AC3
Продолжительность                        : 1 ч. 58 м.
Вид битрейта                             : Постоянный
Битрейт                                  : 192 Кбит/сек
Каналы                                   : 2 канала
Расположение каналов                     : Front: L R
Частота                                  : 48,0 КГц
Битовая глубина                          : 16 бит
Метод сжатия                             : С потерями
Размер потока                            : 163 Мбайт (3%)
Заголовок                                : Многоголосый закадровый, SDI Media
Язык                                     : Russian
Default                                  : Да
Forced                                   : Нет
Аудио #2
Идентификатор                            : 3
Формат                                   : AC-3
Формат/Информация                        : Audio Coding 3
Расширение режима                        : CM (complete main)
Параметр Endianness формата              : Big
Идентификатор кодека                     : A_AC3
Продолжительность                        : 1 ч. 58 м.
Вид битрейта                             : Постоянный
Битрейт                                  : 448 Кбит/сек
Каналы                                   : 6 каналов
Расположение каналов                     : Front: L C R, Side: L R, LFE
Частота                                  : 48,0 КГц
Битовая глубина                          : 16 бит
Метод сжатия                             : С потерями
Размер потока                            : 381 Мбайт (7%)
Заголовок                                : Одноголосый закадровый, Ю. Живов
Язык                                     : Russian
Default                                  : Нет
Forced                                   : Нет
Аудио #3
Идентификатор                            : 4
Формат                                   : DTS
Формат/Информация                        : Digital Theater Systems
Режим                                    : 16
Параметр Endianness формата              : Big
Идентификатор кодека                     : A_DTS
Продолжительность                        : 1 ч. 58 м.
Вид битрейта                             : Постоянный
Битрейт                                  : 1509 Кбит/сек
Каналы                                   : 6 каналов
Расположение каналов                     : Front: L C R, Side: L R, LFE
Частота                                  : 48,0 КГц
Битовая глубина                          : 24 бит
Метод сжатия                             : С потерями
Размер потока                            : 1,25 Гбайт (25%)
Заголовок                                : Оригинал
Язык                                     : English
Default                                  : Нет
Forced                                   : Нет
Текст
Идентификатор                            : 5
Формат                                   : UTF-8
Идентификатор кодека                     : S_TEXT/UTF8
Идентификатор кодека/Информация          : UTF-8 Plain Text
Заголовок                                : Субтитры (Русские)
Язык                                     : Russian
Default                                  : Нет
Forced                                   : Нет
-      
       
- -
Other forum [Profile] [PM]
Similar theme
Forum Topic Author Torrent Replies Last Post
./templates/default/images/folder_dl.gif Развлекательные телепередачи и шоу, приколы и юмор Красная звезда. 20 лучших песен 2012 года [эфир от 01.01] (2013) HDTVRemux от Тorrent-Хzona Omen
0 | 1

0 | 1032

0

2013-01-28 04:33
Omen Latest
./templates/default/images/folder_dl.gif Развлекательные телепередачи и шоу, приколы и юмор Новогодний парад звезд (2012) HDTV 1080i Omen
0 | 1

0 | 696

0

2013-01-28 04:33
Omen Latest
./templates/default/images/folder_dl.gif Зарубежное кино Изгой-один: Звёздные войны. Истории / Rogue One: A Star Wars Story (Гарет Эдвардс) [2016 г., фантастика, боевик, приключения, BDRip 1080p] DUB | Чистый звук Theseus
1 | 0

0 | 7981

8

2017-03-22 11:05
Theseus Latest
./templates/default/images/folder_dl.gif RePack Star Wars Jedi: Fallen Order / Звездные Войны Джедаи: Павший Орден (2019) [Ru/Multi] (1.02/dlc) Repack West4it Clavik
1 | 0

0 | 926

1

2019-12-04 09:12
Clavik Latest
Display posts from previous:    
Reply to topic

The time now is: Today 05:57

All times are GMT + 3 Hours



You cannot post new topics in this forum
You cannot reply to topics in this forum
You cannot edit your posts in this forum
You cannot delete your posts in this forum
You cannot vote in polls in this forum
You cannot attach files in this forum
You cannot download files in this forum