Today is a free download without charge Download

VA • Kennedy Center Honors • Paul McCartney Tribute [2010, Rock, HDTV 1080i]

Reply to topic
 
Author
Message

Omen ®

Longevity: 8 years 4 months

Posts: 181087

Торрент-статистика

Post 04-Jun-2013 09:36

[Quote]

VA • Kennedy Center Honors • 2010
Paul McCartney Tribute

Recorded December 5, 2010
Broadcast December 28, 2010 on CBS-TV


Жанр: Rock
Продолжительность: 00:21:18
Год выпуска: 2010

Участники

Alec Baldwin - speaker
No Doubt:
Gwen Stefani – vocals
Tom Dumont – guitar
Tony Kanal – bass
Adrian Young – drums
Stephen Bradley – trumpet, keyboards
Gabrial McNair – trombone, keyboards
Dave Grohl - guitar, vocals
Norah Jones - vocals
Steven Tyler - vocals
James Taylor - guitar, vocals
Mavis Staples - vocals

Треклист

01. Intro - Alec Baldwin
02.Video Tribute
03. Hello, Goodbye / Penny Lane - No Doubt
04. Maybe I'm Amazed - Dave Grohl and Norah Jones
05. Abbey Road Side 2 Medley - Steven Tyler
06. Let It Be - James Taylor and Mavis Staples
07. Hey Jude - All
Качество: HDTV 1080i
Контейнер: MKV
Видео кодек: MPEG2
Аудио кодек: AC3
Видео: MPEG2 Video 1920x1080 29.970 fps 15.1 Mbps
Аудио: Dolby AC3 48000Hz 6ch

Отчёт MediaInfo / BDInfo

GeneralUnique ID : 206931582601699460606620534554843706966 (0x9BAD92B91EB1343C82F4E454D9887656)Complete name : E:\Kennedy Center Honors - Paul McCartney Tribute.mkvFormat : MatroskaFormat version : Version 2File size : 2.35 GiBDuration : 21mn 18sOverall bit rate mode : VariableOverall bit rate : 15.8 MbpsEncoded date : UTC 2013-06-03 21:44:12Writing application : mkvmerge v6.2.0 ('Promised Land') built on Apr 28 2013 12:22:01Writing library : libebml v1.3.0 + libmatroska v1.4.0
VideoID : 1Format : MPEG VideoFormat version : Version 2Format profile : [email protected] settings, BVOP : NoFormat settings, Matrix : CustomCodec ID : V_MPEG2Codec ID/Info : MPEG 1 or 2 VideoDuration : 21mn 18sBit rate mode : VariableBit rate : 15.1 MbpsMaximum bit rate : 17.1 MbpsWidth : 1 920 pixelsHeight : 1 080 pixelsDisplay aspect ratio : 16:9Frame rate mode : ConstantFrame rate : 29.970 fpsColor space : YUVChroma subsampling : 4:2:0Bit depth : 8 bitsScan type : InterlacedScan order : Top Field FirstCompression mode : LossyBits/(Pixel*Frame) : 0.242Time code of first frame : 00:00:00;00Time code source : Group of pictures headerStream size : 2.24 GiB (96%)Default : YesForced : No
AudioID : 2Format : AC-3Format/Info : Audio Coding 3Mode extension : CM (complete main)Format settings, Endianness : BigCodec ID : A_AC3Duration : 21mn 18sBit rate mode : ConstantBit rate : 384 KbpsChannel(s) : 6 channelsChannel positions : Front: L C R, Side: L R, LFESampling rate : 48.0 KHzBit depth : 16 bitsCompression mode : LossyStream size : 58.5 MiB (2%)Default : YesForced : No
Other forum [Profile] [PM]
Display posts from previous:    
Reply to topic

The time now is: Today 21:34

All times are GMT + 3 Hours



You cannot post new topics in this forum
You cannot reply to topics in this forum
You cannot edit your posts in this forum
You cannot delete your posts in this forum
You cannot vote in polls in this forum
You cannot attach files in this forum
You cannot download files in this forum