Today is a free download without charge Download

Сомнамбула (Алексей Смирнов) [2012.., Россия, Триллер, Драма, DVD9]

Reply to topic
 
Author
Message

Meshanik ®

Gender:

Longevity: 9 years 3 months

Posts: 3866

Location: Los Angeles

Торрент-статистика

Post 04-Jun-2013 05:42

[Quote]

Сомнамбула«Так вот в чём твой секрет...»- Русское название: Сомнамбула
Год выпуска: 2012
Производство: Россия
Жанр: Триллер, Драма
Продолжительность: 01:18:00
Перевод: Не требуется (Русский)
Субтитры: Отсутствуют-Режиссер: Алексей Смирнов
Продюсер: Алексей Смирнов
В ролях: Андрей Дементьев, Мария Ясная, Александр Златопольский, Сергей Апрельский, Марина Гапченко, Георгий Колтушкин, Сергей Ковалев, Николай Михайлов, Вера Сибирёва-Описание фильма:
Фильм основан на истории произошедшей в Интернате для детей сирот в Воронежской области, куда в 1993 году поступил 7-ми летний Андрей Яковлев. Внимание всего Интерната к мальчику приковали странные события, которые происходили с ним почти каждую ночь. Утром на теле мальчика появлялись ссадины, и царапины. Охрана патрулировала по корпусу каждый час, ночные дежурные не сводили с мальчика глаз — но так ничего и не выяснили. 3 августа 1993 года в спальнях интерната установили камеры видеонаблюдения. То, что запечатлели камеры шокировало сотрудников Интерната и привлекло внимание спецслужб. С виду обычный ребенок, обладающий множеством талантов и перспектив на будущее, поневоле создал огромный ажиотаж вокруг себя, а некоторые факты из его биографии были засекречены.-Дата российской премьеры: 21 февраля 2013, «Корпорация кино»
Дата выхода DVD релиза: 13 мая 2013, «Новый Диск»- -Качество видео: DVD9
Видеокодек: MPEG-2
Битрейт видео: ~8000 kbps
Размер кадра: PAL 16:9 [[email protected]х576]
Аудио: AC3, 6 ch, 448 kbps [Русский]
-Дополнительно: Анонсы, Фильм о фильме
-

MediaInfo:

Общее
Полное имя : Somnambula.2012.DVD9\VIDEO_TS\VTS_13_2.VOB
Формат : MPEG-PS
Размер файла : 1024 Мбайт
Продолжительность : 16 м.
Общий поток : 8600 Кбит/сек
Видео
Идентификатор : 224 (0xE0)
Формат : MPEG Video
Версия формата : Version 2
Профиль формата : [email protected]
Параметр BVOP формата : Да
Параметр матрицы формата : По умолчанию
Параметр GOP формата : M=3, N=12
Продолжительность : 16 м.
Битрейт : 8000 Кбит/сек
Ширина : 720 пикселей
Высота : 576 пикселей
Соотношение сторон : 16:9
Частота кадров : 25,000 кадров/сек
Стандарт вещания : PAL
Цветовое пространство : YUV
Субдискретизация насыщенности : 4:2:0
Битовая глубина : 8 бит
Тип развёртки : Прогрессивная
Метод сжатия : С потерями
Бит/(Пиксели*Кадры) : 0.772
Размер потока : 950 Мбайт (93%)
Аудио
Идентификатор : 189 (0xBD)-128 (0x80)
Формат : AC-3
Формат/Информация : Audio Coding 3
Расширение режима : CM (complete main)
Режим смешивания : DVD-Video
Продолжительность : 16 м.
Вид битрейта : Постоянный
Битрейт : 448 Кбит/сек
Каналы : 6 каналов
Расположение каналов : Front: L C R, Side: L R, LFE
Частота : 48,0 КГц
Битовая глубина : 16 бит
Метод сжатия : С потерями
Задержка видео : -576 мс.
Размер потока : 53,3 Мбайт (5%)
Меню

-

DVDInfo:

Title: Somnambula.2012.DVD9
Size: 5.60 Gb ( 5 868 712,00 KBytes ) - DVD-9
Enabled regions: 1, 2, 3, 4, 5, 6, 7, 8
VTS_01 :
Play Length: 00:00:15
Video: PAL 4:3 (720x576) VBR
Audio:
  • Russian (Dolby AC3, 2 ch)
    VTS_02 :
    Play Length: 00:00:08
    Video: PAL 16:9 (720x576) VBR, Auto Letterboxed
    Audio:
  • Russian (Dolby AC3, 2 ch)
    VTS_03 :
    Play Length: 00:01:47
    Video: PAL 16:9 (720x576) VBR, Auto Letterboxed
    Audio:
  • Russian (Dolby AC3, 2 ch)
    VTS_04 :
    Play Length: 00:02:18
    Video: PAL 16:9 (720x576) VBR, Auto Letterboxed
    Audio:
  • Russian (Dolby AC3, 2 ch)
    VTS_05 :
    Play Length: 00:02:10
    Video: PAL 16:9 (720x576) VBR, Auto Letterboxed
    Audio:
  • Russian (Dolby AC3, 2 ch)
    VTS_06 :
    Play Length: 00:02:00
    Video: PAL 16:9 (720x576) VBR, Auto Letterboxed
    Audio:
  • Russian (Dolby AC3, 2 ch)
    VTS_07 :
    Play Length: 00:02:20
    Video: PAL 16:9 (720x576) VBR, Auto Letterboxed
    Audio:
  • Russian (Dolby AC3, 2 ch)
    VTS_08 :
    Play Length: 00:02:19
    Video: PAL 16:9 (720x576) VBR, Auto Letterboxed
    Audio:
  • Russian (Dolby AC3, 2 ch)
    VTS_09 :
    Play Length: 00:01:53
    Video: PAL 16:9 (720x576) VBR, Auto Letterboxed
    Audio:
  • Russian (Dolby AC3, 2 ch)
    VTS_10 :
    Play Length: 00:01:43
    Video: PAL 16:9 (720x576) VBR, Auto Letterboxed
    Audio:
  • Russian (Dolby AC3, 2 ch)
    VTS_11 :
    Play Length: 00:00:01
    Video: PAL 16:9 (720x576) VBR, Auto Letterboxed
    Audio:
  • Russian (Dolby AC3, 2 ch)
    Subtitles:
  • Russian
    VTS_12 :
    Play Length: 00:00:01
    Video: PAL 16:9 (720x576) VBR, Auto Letterboxed
    Audio:
  • Not specified (Dolby AC3, 2 ch)
    VTS_13 :
    Play Length: 01:18:00
    Video: PAL 16:9 (720x576) VBR, Auto Letterboxed
    Audio:
  • Russian (Dolby AC3, 6 ch)
    VTS_14 :
    Play Length: 00:03:38
    Video: PAL 16:9 (720x576) VBR, Auto Letterboxed
    Audio:
  • Russian (Dolby AC3, 2 ch)
    * Menus Information *
    VIDEO_TS Menu
    Video:
  • PAL 16:9 (720x576) VBR
  • Auto Pan&Scan
    Audio:
  • Not specified (LinearPCM, 2 ch)
    English Language Unit :
  • Title Menu
    VTS_01 Menu
    Video:
  • PAL 16:9 (720x576) VBR
  • Auto Letterboxed
    Audio:
  • Not specified (Dolby AC3, 2 ch)
    English Language Unit :
  • Root Menu
  • Chapter (PTT) Menu
    VTS_02 Menu
    Video:
  • NTSC 4:3 (720x480) VBR
  • Auto Pan&Scan, Auto Letterboxed
    English Language Unit :
  • Root Menu
  • Chapter (PTT) Menu
    VTS_03 Menu
    Video:
  • NTSC 4:3 (720x480) VBR
  • Auto Pan&Scan, Auto Letterboxed
    English Language Unit :
  • Root Menu
  • Chapter (PTT) Menu
    VTS_04 Menu
    Video:
  • NTSC 4:3 (720x480) VBR
  • Auto Pan&Scan, Auto Letterboxed
    English Language Unit :
  • Root Menu
  • Chapter (PTT) Menu
    VTS_05 Menu
    Video:
  • NTSC 4:3 (720x480) VBR
  • Auto Pan&Scan, Auto Letterboxed
    English Language Unit :
  • Root Menu
  • Chapter (PTT) Menu
    VTS_06 Menu
    Video:
  • NTSC 4:3 (720x480) VBR
  • Auto Pan&Scan, Auto Letterboxed
    English Language Unit :
  • Root Menu
  • Chapter (PTT) Menu
    VTS_07 Menu
    Video:
  • NTSC 4:3 (720x480) VBR
  • Auto Pan&Scan, Auto Letterboxed
    English Language Unit :
  • Root Menu
  • Chapter (PTT) Menu
    VTS_08 Menu
    Video:
  • NTSC 4:3 (720x480) VBR
  • Auto Pan&Scan, Auto Letterboxed
    English Language Unit :
  • Root Menu
  • Chapter (PTT) Menu
    VTS_09 Menu
    Video:
  • NTSC 4:3 (720x480) VBR
  • Auto Pan&Scan, Auto Letterboxed
    English Language Unit :
  • Root Menu
  • Chapter (PTT) Menu
    VTS_10 Menu
    Video:
  • NTSC 4:3 (720x480) VBR
  • Auto Pan&Scan, Auto Letterboxed
    English Language Unit :
  • Root Menu
  • Chapter (PTT) Menu
    VTS_11 Menu
    Video:
  • NTSC 4:3 (720x480) VBR
  • Auto Pan&Scan, Auto Letterboxed
    English Language Unit :
  • Root Menu
  • Chapter (PTT) Menu
    VTS_12 Menu
    Video:
  • NTSC 4:3 (720x480) VBR
  • Auto Pan&Scan, Auto Letterboxed
    English Language Unit :
  • Root Menu
  • Chapter (PTT) Menu
    VTS_13 Menu
    Video:
  • NTSC 4:3 (720x480) VBR
  • Auto Pan&Scan, Auto Letterboxed
    English Language Unit :
  • Root Menu
  • Chapter (PTT) Menu
    VTS_14 Menu
    Video:
  • NTSC 4:3 (720x480) VBR
  • Auto Pan&Scan, Auto Letterboxed
    English Language Unit :
  • Root Menu
  • Chapter (PTT) Menu

-

Меню DVD:

     

-
Скриншоты:
-
       
       
-
Other forum [Profile] [PM]
Display posts from previous:    
Reply to topic

The time now is: Today 23:36

All times are GMT + 3 Hours



You cannot post new topics in this forum
You cannot reply to topics in this forum
You cannot edit your posts in this forum
You cannot delete your posts in this forum
You cannot vote in polls in this forum
You cannot attach files in this forum
You cannot download files in this forum