Today is a free download without charge Download

Рок на века / Rock of ages (Адам Шенкман / Adam Shankman) [2012, США, мюзикл, мелодрама, комедия, BDRip 720p] [Расширенная версия] VO (lord666) + Dub (вставки VO) + Sub Rus, Eng + Original Eng

Reply to topic
 
Author
Message

Omen ®

Longevity: 8 years 5 months

Posts: 181087

Торрент-статистика

Post 04-Jun-2013 01:31

[Quote]

Рок на века / Rock of ages / Расширенная версия
Страна: США
Жанр: мюзикл, мелодрама, комедия
Год выпуска: 2012
Продолжительность: 02:16:14
Перевод: Одноголосый закадровый lord666
Перевод 2: Профессиональный (дублированный) вставки VO
Cубтитры: русские, английские
Оригинальная аудиодорожка: английский
Режиссер: Адам Шенкман / Adam Shankman
В ролях: Джулианна Хаф, Диего Бонета, Расселл Брэнд, Алек Болдуин, Том Круз, Пол Джаматти, Кэтрин Зета-Джонс, Малин Акерман, Мэри Джей Блайдж, Дакота Сэйдж Грант
Описание: Девушка из маленького города приезжает в Голливуд, чтобы покорить его музыкальную сцену, но вопреки мечтам оказывается раздавленной безжалостной Фабрикой Грез. Но на нее обращает внимание экс-звезда рок-сцены Стэйси Джеккс, а сама девушка, хоть и устраивается работать в стрипклуб, обретает настоящую любовь.
Доп. информация: За создание дороги с дубляжом и вставками VO на расширенные места большое спасибо angelica_k
Сэмпл: http://multi-up.com/872167
Качество видео: BDRip 720p (Исходник: 1080p Blu-ray AVC 1080p DTS-HD MA 7.1)
Формат видео: MKV
Видео: V_MPEG4/ISO/AVC, 1280x534 пикселя, 2,40:1, 23,976 кадра/сек, 5000 Кбит/сек
Аудио: A_AC3, 48,0 КГц, 640 Кбит/сек, 6 каналов, Front: L C R, Side: L R, LFE VO lord666
Аудио 2: A_AC3, 48,0 КГц, 640 Кбит/сек, 6 каналов, Front: L C R, Side: L R, LFE Dub + VO
Аудио 3: A_DTS, 48,0 КГц, 1509 Кбит/сек, 6 каналов, Front: L C R, Side: L R, LFE original eng
Формат субтитров: softsub (SRT)
Доп. информация о субтитрах: lord666 (на песни и полные)

MediaInfo

Общее
Уникальный идентификатор : 233944809870443139036554239153397886562 (0xB00021A7C74AC02E8D93DB2C88D4EE62)
Полное имя : D:\фильмы.avi\uploaded\rock.of.ages.EXTENDED.720\Rock.of.Ages.2012.EXTENDED.720p.BDRip.mkv
Формат : Matroska
Версия формата : Version 2
Размер файла : 7,41 Гбайт
Продолжительность : 2 ч. 16 м.
Общий поток : 7791 Кбит/сек
Название фильма : -=POTROKS=-
Дата кодирования : UTC 2013-06-03 17:52:30
Программа кодирования : mkvmerge v5.8.0 ('No Sleep / Pillow') built on Sep 2 2012 15:37:04
Библиотека кодирования : libebml v1.2.3 + libmatroska v1.3.0
Видео
Идентификатор : 1
Формат : AVC
Формат/Информация : Advanced Video Codec
Профиль формата : [email protected]
Параметр CABAC формата : Да
Параметр ReFrames формата : 12 кадров
Идентификатор кодека : V_MPEG4/ISO/AVC
Продолжительность : 2 ч. 16 м.
Битрейт : 5000 Кбит/сек
Ширина : 1280 пикселей
Высота : 534 пикселя
Соотношение сторон : 2,40:1
Режим частоты кадров : Постоянный
Частота кадров : 23,976 кадра/сек
Цветовое пространство : YUV
Субдискретизация насыщенности : 4:2:0
Битовая глубина : 8 бит
Тип развёртки : Прогрессивная
Бит/(Пиксели*Кадры) : 0.305
Размер потока : 4,61 Гбайт (62%)
Библиотека кодирования : x264 core 128 r2216+688+33 06dac27 tMod+MixAQ [[email protected]:2:0 X86_64]
Настройки программы : cabac=1 / ref=12 / deblock=1:-3:-3 / analyse=0x3:0x113 / me=umh / subme=10 / psy=1 / fade_compensate=0.00 / psy_rd=1.10:0.00 / mixed_ref=1 / me_range=32 / chroma_me=1 / trellis=2 / 8x8dct=1 / cqm=0 / deadzone=21,11 / fast_pskip=0 / chroma_qp_offset=-2 / threads=18 / lookahead_threads=3 / sliced_threads=0 / nr=0 / decimate=0 / interlaced=0 / bluray_compat=0 / constrained_intra=0 / fgo=0 / bframes=8 / b_pyramid=2 / b_adapt=2 / b_bias=0 / direct=3 / weightb=1 / open_gop=0 / weightp=2 / keyint=240 / keyint_min=24 / scenecut=40 / intra_refresh=0 / rc_lookahead=120 / rc=2pass / mbtree=1 / bitrate=5000 / ratetol=1.0 / qcomp=0.70 / qpmin=0 / qpmax=69 / qpstep=4 / cplxblur=20.0 / qblur=0.5 / ip_ratio=1.20 / aq=4 / aq-strength=0.80 / aq-sensitivity=10.00 / aq-ifactor=1.00 / aq-pfactor=1.00 / aq-bfactor=1.00 / aq2=0
Язык : English
Default : Да
Forced : Нет
Аудио #1
Идентификатор : 2
Формат : AC-3
Формат/Информация : Audio Coding 3
Расширение режима : CM (complete main)
Параметр Endianness формата : Big
Идентификатор кодека : A_AC3
Продолжительность : 2 ч. 16 м.
Вид битрейта : Постоянный
Битрейт : 640 Кбит/сек
Каналы : 6 каналов
Расположение каналов : Front: L C R, Side: L R, LFE
Частота : 48,0 КГц
Битовая глубина : 16 бит
Метод сжатия : С потерями
Размер потока : 624 Мбайт (8%)
Заголовок : lord666
Язык : Russian
Default : Да
Forced : Нет
Аудио #2
Идентификатор : 3
Формат : AC-3
Формат/Информация : Audio Coding 3
Расширение режима : CM (complete main)
Параметр Endianness формата : Big
Идентификатор кодека : A_AC3
Продолжительность : 2 ч. 16 м.
Вид битрейта : Постоянный
Битрейт : 640 Кбит/сек
Каналы : 6 каналов
Расположение каналов : Front: L C R, Side: L R, LFE
Частота : 48,0 КГц
Битовая глубина : 16 бит
Метод сжатия : С потерями
Размер потока : 624 Мбайт (8%)
Заголовок : Дубляж + вставки VO
Язык : Russian
Default : Нет
Forced : Нет
Аудио #3
Идентификатор : 4
Формат : DTS
Формат/Информация : Digital Theater Systems
Режим : 16
Параметр Endianness формата : Big
Идентификатор кодека : A_DTS
Продолжительность : 2 ч. 16 м.
Вид битрейта : Постоянный
Битрейт : 1509 Кбит/сек
Каналы : 6 каналов
Расположение каналов : Front: L C R, Side: L R, LFE
Частота : 48,0 КГц
Битовая глубина : 24 бит
Метод сжатия : С потерями
Размер потока : 1,44 Гбайт (19%)
Заголовок : original
Язык : English
Default : Нет
Forced : Нет
Текст #1
Идентификатор : 5
Формат : UTF-8
Идентификатор кодека : S_TEXT/UTF8
Идентификатор кодека/Информация : UTF-8 Plain Text
Заголовок : на песни (lord666)
Язык : Russian
Default : Да
Forced : Да
Текст #2
Идентификатор : 6
Формат : UTF-8
Идентификатор кодека : S_TEXT/UTF8
Идентификатор кодека/Информация : UTF-8 Plain Text
Заголовок : полные (lord666)
Язык : Russian
Default : Нет
Forced : Нет
Текст #3
Идентификатор : 7
Формат : UTF-8
Идентификатор кодека : S_TEXT/UTF8
Идентификатор кодека/Информация : UTF-8 Plain Text
Заголовок : original
Язык : English
Default : Нет
Forced : Нет
Меню
00:00:00.000 : en:00:00:00.000
00:11:04.205 : en:00:11:04.205
00:19:52.691 : en:00:19:52.691
00:34:26.439 : en:00:34:26.439
00:46:22.905 : en:00:46:22.905
00:58:41.143 : en:00:58:41.143
01:07:17.867 : en:01:07:17.867
01:18:11.854 : en:01:18:11.854
01:28:10.493 : en:01:28:10.493
01:37:44.859 : en:01:37:44.859
01:53:35.851 : en:01:53:35.851
02:03:58.806 : en:02:03:58.806
02:09:06.489 : en:02:09:06.489

Скриншот c названием фильма

Скриншоты

Other forum [Profile] [PM]
Display posts from previous:    
Reply to topic

The time now is: Today 10:51

All times are GMT + 3 Hours



You cannot post new topics in this forum
You cannot reply to topics in this forum
You cannot edit your posts in this forum
You cannot delete your posts in this forum
You cannot vote in polls in this forum
You cannot attach files in this forum
You cannot download files in this forum