Today is a free download without charge Download

Таксист / Taxi Driver (Мартин Скорсезе) (Триллер, Драма, Криминал, 1976) BDRip [1080p] [Mastered in 4K]

Reply to topic
 
Author
Message

Omen ®

Longevity: 8 years 5 months

Posts: 181087

Торрент-статистика

Post 03-Jun-2013 22:04

[Quote]

Таксист / Taxi Driver - Русское название: Таксист
Оригинальное название: Taxi Driver
Год выпуска: 1976
Жанр: Триллер, Драма, Криминал
Режиссер: Мартин Скорсезе
Актеры: Роберт Де Ниро, Джоди Фостер, Сибилл Шепард, Питер Бойл, Харви Кейтель, Леонард Харрис, Альберт Брукс, Дайэнн Эбботт, Фрэнк Эду, Джино Ардито
Описание фильма:
Тусклый свет слепых фонарей, скелеты фабричных труб, задыхающихся в собственном дыму. Вавилонские башни небоскребов, все это — ад Нового времени, Нью-Йорк.
Ветеран вьетнамской войны Трэйвис Бикл ведет свое одинокое такси по ночным улицам бесконечного города, и перед ним разворачивается мрачная панорама человеческих грехов. Как ветхозаветный пророк, он надеется, что однажды небеса пошлют на землю спасительный дождь, который очистит Нью-Йорк от вековой грязи.
А когда умирает надежда, остается только ненависть. Огненный ливень обрушится на головы грешников. Таксист позаботится об этом.- -Релиз от:
Продолжительность: 01:53:48
Перевод: Закадровый многоголосый (рус. 4 шт. + укр.), одноголосый (4 шт.)
Язык субтитров: Русский, English, English SDH, Spanish, French
Качество видео: BDRip [Mastered in 4K] (Рип от FANDANGO!)
Контейнер: MKV
Видео: 1920x1036, 23.976 fps, [url=mailto:[email protected]][email protected][/url], ~ 22 434 Kbps
Аудио:
1: Русский: 48 kHz, AC3 5.1 @ 640 Kbps (MVO -> BD EUR)
2: Русский: 48 kHz, AC3 2.0 @ 192 Kbps (MVO -> Киномания)
3: Русский: 48 kHz, AC3 2.0 @ 192 Kbps (MVO -> НТВ)
4: Русский: 48 kHz, AC3 2.0 @ 192 Kbps (MVO -> ТК "ОРТ")
5: Русский: 48 kHz, DTS 5.1 @ 1510 Kbps (AVO-> Ю.Живов)
6: Русский: 48 kHz, DTS 5.1 @ 1510 Kbps (AVO -> Г.Либергал)
7: Русский: 48 kHz, AC3 2.0 @ 192 Kbps (AVO -> А.Михалёв)
8: Русский: 48 kHz, AC3 2.0 @ 192 Kbps (AVO -> К.Поздняков)
9: Ukrainian: 48 kHz, AC3 5.1 @ 448 Kbps (MVO -> INTER)
10: English: 48 kHz, DTS 5.1 @ 1510 Kbps
11: English: 48 kHz, AAC 2.0 @ 192 Kbps (Commentary by director Martin Scorsese and writer Paul Schrader)
12: English: 48 kHz, AAC 2.0 @ 192 Kbps (Commentary by Professor Robert Kolker)
13: English 48 kHz, AAC 2.0 @ 192 Kbps (Commentary by writer Paul Schrader)

MediaInfo 0.7.62

Общее
Уникальный идентификатор : 171465898017668449942835737556409150989 (0x80FF21786561F64EA08EA0A89BD06E0D)
Полное имя : Taxi.Driver.1976.1080p.BluRay.x264.Rus.Ukr.Eng-FANDANGO.mkv
Формат : Matroska
Версия формата : Version 2
Размер файла : 23,4 Гбайт
Продолжительность : 1 ч. 53 м.
Общий поток : 29,5 Мбит/сек
Название фильма : BLUEBIRD
Дата кодирования : UTC 2013-05-28 15:10:08
Программа кодирования : mkvmerge v5.8.0 ('No Sleep / Pillow') built on Sep 2 2012 15:37:04
Библиотека кодирования : libebml v1.2.3 + libmatroska v1.3.0
Видео
Идентификатор : 1
Формат : AVC
Формат/Информация : Advanced Video Codec
Профиль формата : [url=mailto:[email protected]][email protected][/url]
Параметр CABAC формата : Да
Параметр ReFrames формата : 4 кадра
Идентификатор кодека : V_MPEG4/ISO/AVC
Продолжительность : 1 ч. 53 м.
Ширина : 1920 пикселей
Высота : 1036 пикселей
Соотношение сторон : 1,85:1
Частота кадров : 23,976 кадра/сек
Цветовое пространство : YUV
Субдискретизация насыщенности : 4:2:0
Битовая глубина : 8 бит
Тип развёртки : Прогрессивная
Заголовок : Taxi.Driver.1976.1080p.BluRay.DTS.x264-FANDANGO
Библиотека кодирования : x264 core 132 r2309kMod 3b1f1f7
Настройки программы : opencl=1 / cabac=1 / ref=4 / deblock=1:-3:-3 / analyse=0x3:0x113 / me=umh / subme=10 / psy=1 / fade_compensate=0.00 / psy_rd=0.90:0.00 / mixed_ref=1 / me_range=16 / chroma_me=1 / trellis=2 / 8x8dct=1 / cqm=0 / deadzone=21,11 / fast_pskip=0 / chroma_qp_offset=-2 / threads=6 / lookahead_threads=1 / sliced_threads=0 / nr=0 / decimate=0 / interlaced=0 / bluray_compat=0 / constrained_intra=0 / bframes=8 / b_pyramid=2 / b_adapt=2 / b_bias=0 / direct=3 / weightb=1 / open_gop=0 / weightp=2 / keyint=250 / keyint_min=23 / scenecut=40 / intra_refresh=0 / rc_lookahead=40 / rc=crf / mbtree=1 / crf=19.0000 / qcomp=0.65 / qpmin=0 / qpmax=69 / qpstep=4 / ip_ratio=1.30 / aq=1:0.60
Язык : English
Default : Да
Forced : Нет
Аудио #1
Идентификатор : 2
Формат : AC-3
Формат/Информация : Audio Coding 3
Расширение режима : CM (complete main)
Параметр Endianness формата : Big
Идентификатор кодека : A_AC3
Продолжительность : 1 ч. 53 м.
Вид битрейта : Постоянный
Битрейт : 640 Кбит/сек
Каналы : 6 каналов
Расположение каналов : Front: L C R, Side: L R, LFE
Частота : 48,0 КГц
Битовая глубина : 16 бит
Метод сжатия : С потерями
Размер потока : 521 Мбайт (2%)
Заголовок : BD EUR
Язык : Russian
Default : Да
Forced : Нет
Аудио #2
Идентификатор : 3
Формат : AC-3
Формат/Информация : Audio Coding 3
Расширение режима : CM (complete main)
Параметр Endianness формата : Big
Идентификатор кодека : A_AC3
Продолжительность : 1 ч. 53 м.
Вид битрейта : Постоянный
Битрейт : 448 Кбит/сек
Каналы : 6 каналов
Расположение каналов : Front: L C R, Side: L R, LFE
Частота : 48,0 КГц
Битовая глубина : 16 бит
Метод сжатия : С потерями
Размер потока : 365 Мбайт (2%)
Заголовок : Киномания
Язык : Russian
Default : Нет
Forced : Нет
Аудио #3
Идентификатор : 4
Формат : AC-3
Формат/Информация : Audio Coding 3
Расширение режима : CM (complete main)
Параметр Endianness формата : Big
Идентификатор кодека : A_AC3
Продолжительность : 1 ч. 53 м.
Вид битрейта : Постоянный
Битрейт : 192 Кбит/сек
Каналы : 2 канала
Расположение каналов : Front: L R
Частота : 48,0 КГц
Битовая глубина : 16 бит
Метод сжатия : С потерями
Размер потока : 156 Мбайт (1%)
Заголовок : НТВ
Язык : Russian
Default : Нет
Forced : Нет
Аудио #4
Идентификатор : 5
Формат : AC-3
Формат/Информация : Audio Coding 3
Расширение режима : CM (complete main)
Параметр Endianness формата : Big
Идентификатор кодека : A_AC3
Продолжительность : 1 ч. 53 м.
Вид битрейта : Постоянный
Битрейт : 192 Кбит/сек
Каналы : 2 канала
Расположение каналов : Front: L R
Частота : 48,0 КГц
Битовая глубина : 16 бит
Метод сжатия : С потерями
Размер потока : 156 Мбайт (1%)
Заголовок : ОРТ
Язык : Russian
Default : Нет
Forced : Нет
Аудио #5
Идентификатор : 6
Формат : DTS
Формат/Информация : Digital Theater Systems
Идентификатор кодека : A_DTS
Продолжительность : 1 ч. 53 м.
Вид битрейта : Постоянный
Битрейт : 1510 Кбит/сек
Каналы : 6 каналов
Расположение каналов : Front: L C R, Side: L R, LFE
Частота : 48,0 КГц
Битовая глубина : 16 бит
Метод сжатия : С потерями
Размер потока : 1,20 Гбайт (5%)
Заголовок : Ю.Живов
Язык : Russian
Default : Нет
Forced : Нет
Аудио #6
Идентификатор : 7
Формат : DTS
Формат/Информация : Digital Theater Systems
Идентификатор кодека : A_DTS
Продолжительность : 1 ч. 53 м.
Вид битрейта : Постоянный
Битрейт : 1510 Кбит/сек
Каналы : 6 каналов
Расположение каналов : Front: L C R, Side: L R, LFE
Частота : 48,0 КГц
Битовая глубина : 16 бит
Метод сжатия : С потерями
Размер потока : 1,20 Гбайт (5%)
Заголовок : Г.Либергал
Язык : Russian
Default : Нет
Forced : Нет
Аудио #7
Идентификатор : 8
Формат : AC-3
Формат/Информация : Audio Coding 3
Расширение режима : CM (complete main)
Параметр Endianness формата : Big
Идентификатор кодека : A_AC3
Продолжительность : 1 ч. 53 м.
Вид битрейта : Постоянный
Битрейт : 192 Кбит/сек
Каналы : 2 канала
Расположение каналов : Front: L R
Частота : 48,0 КГц
Битовая глубина : 16 бит
Метод сжатия : С потерями
Размер потока : 156 Мбайт (1%)
Заголовок : А.Михалев
Язык : Russian
Default : Нет
Forced : Нет
Аудио #8
Идентификатор : 9
Формат : AC-3
Формат/Информация : Audio Coding 3
Расширение режима : CM (complete main)
Параметр Endianness формата : Big
Идентификатор кодека : A_AC3
Продолжительность : 1 ч. 53 м.
Вид битрейта : Постоянный
Битрейт : 192 Кбит/сек
Каналы : 2 канала
Расположение каналов : Front: L R
Частота : 48,0 КГц
Битовая глубина : 16 бит
Метод сжатия : С потерями
Размер потока : 156 Мбайт (1%)
Заголовок : К.Поздняков
Язык : Russian
Default : Нет
Forced : Нет
Аудио #9
Идентификатор : 10
Формат : AC-3
Формат/Информация : Audio Coding 3
Расширение режима : CM (complete main)
Параметр Endianness формата : Big
Идентификатор кодека : A_AC3
Продолжительность : 1 ч. 53 м.
Вид битрейта : Постоянный
Битрейт : 448 Кбит/сек
Каналы : 6 каналов
Расположение каналов : Front: L C R, Side: L R, LFE
Частота : 48,0 КГц
Битовая глубина : 16 бит
Метод сжатия : С потерями
Размер потока : 365 Мбайт (2%)
Заголовок : МВО
Язык : Ukrainian
Default : Нет
Forced : Нет
Аудио #10
Идентификатор : 11
Формат : DTS
Формат/Информация : Digital Theater Systems
Идентификатор кодека : A_DTS
Продолжительность : 1 ч. 53 м.
Вид битрейта : Постоянный
Битрейт : 1510 Кбит/сек
Каналы : 6 каналов
Расположение каналов : Front: L C R, Side: L R, LFE
Частота : 48,0 КГц
Битовая глубина : 24 бит
Метод сжатия : С потерями
Размер потока : 1,20 Гбайт (5%)
Язык : English
Default : Нет
Forced : Нет
Аудио #11
Идентификатор : 12
Формат : AAC
Формат/Информация : Advanced Audio Codec
Профиль формата : HE-AAC / LC
Идентификатор кодека : A_AAC
Продолжительность : 1 ч. 53 м.
Каналы : 2 канала
Расположение каналов : Front: L R
Частота : 48,0 КГц / 24,0 КГц
Метод сжатия : С потерями
Заголовок : Commentary by director Martin Scorsese and writer Paul Schrader
Язык : English
Default : Нет
Forced : Нет
Аудио #12
Идентификатор : 13
Формат : AAC
Формат/Информация : Advanced Audio Codec
Профиль формата : HE-AAC / LC
Идентификатор кодека : A_AAC
Продолжительность : 1 ч. 53 м.
Каналы : 2 канала
Расположение каналов : Front: L R
Частота : 48,0 КГц / 24,0 КГц
Метод сжатия : С потерями
Заголовок : Commentary by Professor Robert Kolker
Язык : English
Default : Нет
Forced : Нет
Аудио #13
Идентификатор : 14
Формат : AAC
Формат/Информация : Advanced Audio Codec
Профиль формата : HE-AAC / LC
Идентификатор кодека : A_AAC
Продолжительность : 1 ч. 53 м.
Каналы : 2 канала
Расположение каналов : Front: L R
Частота : 48,0 КГц / 24,0 КГц
Метод сжатия : С потерями
Заголовок : Commentary by writer Paul Schrader
Язык : English
Default : Нет
Forced : Нет
Текст #1
Идентификатор : 15
Формат : UTF-8
Идентификатор кодека : S_TEXT/UTF8
Идентификатор кодека/Информация : UTF-8 Plain Text
Язык : Russian
Default : Нет
Forced : Нет
Текст #2
Идентификатор : 16
Формат : UTF-8
Идентификатор кодека : S_TEXT/UTF8
Идентификатор кодека/Информация : UTF-8 Plain Text
Язык : English
Default : Нет
Forced : Нет
Текст #3
Идентификатор : 17
Формат : UTF-8
Идентификатор кодека : S_TEXT/UTF8
Идентификатор кодека/Информация : UTF-8 Plain Text
Заголовок : SDH
Язык : English
Default : Нет
Forced : Нет
Текст #4
Идентификатор : 18
Формат : UTF-8
Идентификатор кодека : S_TEXT/UTF8
Идентификатор кодека/Информация : UTF-8 Plain Text
Язык : French
Default : Нет
Forced : Нет
Текст #5
Идентификатор : 19
Формат : UTF-8
Идентификатор кодека : S_TEXT/UTF8
Идентификатор кодека/Информация : UTF-8 Plain Text
Язык : Spanish
Default : Нет
Forced : Нет
Меню
00:00:00.000 : en:Start
00:10:59.033 : en:Travis Bickle
00:20:05.037 : en:Tom & Betsy
00:28:21.032 : en:Wizard's Court
00:33:12.198 : en:A New Volunteer
00:40:11.575 : en:Charles Palantine
00:44:03.640 : en:Aborted Fire
00:51:42.140 : en:A Date with Betsy
01:01:10.541 : en:Confrontation
01:08:11.796 : en:Curbside Cuckhold
01:14:49.026 : en:A Word with Wizard
01:24:46.039 : en:Running Into Iris
01:29:42.752 : en:Easy Andy
01:34:11.979 : en:Henry Krinkle
01:38:02.418 : en:"You Talkin' to Me?"
01:45:57.893 : en:Market Robbery

Знаете ли Вы, что...

Съемочный период: июнь-сентябрь 1975.
  • Сибилл Шепард случайно получила роль Бетси. Продюсеры искали актрису, которую описывали как типажно похожую на Сибилл. Агент актрисы Сью Менгерс узнала об этом и спросила продюсеров, почему бы им ни пригласить саму Шепард.
  • Фильм собирался снимать Брайан Де Палма.
  • От главной роли отказался Аль Пачино.
  • В сценарии Пола Шредера несколько отрицательных героев были черными. Скорсезе посчитал, что это могут воспринять как проявление расизма, и потребовал сделать этих персонажей белыми. Шредер согласился.
  • Роль Трэвиса Бикла предлагали Джеффу Бриджесу.
  • На роль сенатора Чарлза Палантина приглашали Рока Хадсона, но актер в тот момент был занят на сериале «МакМиллан и жена».
  • Харви Кейтел вначале получил роль рабочего Тома. Но затем эту роль отдали Альберту Бруксу, а Кейтел сам выбрал сутенера Спота Мэттью, хотя по сценарию его герой произносит не больше пяти реплик.
  • Специально для роли Кейтел познакомился с настоящими сутенерами. Он также сымпровизировал сцену танца с Джоди Фостер. Танец — одна из двух сцен, где внимание камеры не сосредоточено на Трэвисе.
  • В течение месяца Де Ниро по двенадцать часов сидел за рулем, чтобы научиться водить такси. Также он специально для роли изучал различные умственные болезни.
  • Сцена, где Трэвис беседует со своим отражением в зеркале, целиком сымпровизирована Де Ниро. В сценарии просто сказано «Трэвис смотрится в зеркало».
  • Бернард Херрманн не хотел писать музыку к фильму, но увидев сцену, где Трэвис поливает хлеб шнапсом, согласился.
  • Херрман скончался через несколько часов после того, как была записана последняя часть музыкальной партитуры фильма.
  • Из-за своего возраста (13 лет на момент съемок) Джоди Фостер не могла принимать участие в некоторых наиболее откровенных сценах. Ее дублировала старшая сестра Конни Фостер.
  • Актер Джордж Меммоли должен был сыграть одного из пассажиров Трэвиса, однако на съемках другого фильма, «Фермер» (1975), с ним случился несчастный случай, и Меммоли пришлось подменить самому Мартину Скорсезе.
  • Цитата, которая звучит в конце эссе Дэнни, — последние слова Авраама Линкольна во время его инаугурационной речи в 1861 году.
Скриншоты:

     
       
Other forum [Profile] [PM]
Display posts from previous:    
Reply to topic

The time now is: Today 10:43

All times are GMT + 3 Hours



You cannot post new topics in this forum
You cannot reply to topics in this forum
You cannot edit your posts in this forum
You cannot delete your posts in this forum
You cannot vote in polls in this forum
You cannot attach files in this forum
You cannot download files in this forum