Today is a free download without charge Download

Убить пересмешника / To Kill a Mockingbird (Роберт Маллиган / Robert Mulligan) [1962, США, драма, криминал, детектив, BDRip 1080p] Dub (CEE) + MVO + Sub Rus + Original Eng

Reply to topic
 
Author
Message

Omen ®

Longevity: 8 years 5 months

Posts: 181087

Торрент-статистика

Post 03-Jun-2013 21:23

[Quote]

-Убить пересмешника / To Kill a Mockingbird-Страна: США
Жанр: драма, криминал, детектив
Год выпуска: 1962
Продолжительность: 02:09:10-Перевод: Профессиональный (дублированный) CEE
Перевод 2: Профессиональный (многоголосый закадровый)
Cубтитры: русские, английские
Оригинальная аудиодорожка: английский-Режиссер: Роберт Маллиган / Robert Mulligan
В ролях: Грегори Пек (Atticus Finch,), Джон Меджна (Charles Baker 'Dill' Harris), Фрэнк Овертон (Sheriff Heck Tate), Розмари Мерфи (Maudie Atkinson), Рут Уайт (Mrs. Dubose), Брок Питерс (Tom Robinson), Эстелль Эванс (Calpurnia), Пол Фикс (Judge Taylor), Коллин Уилкокс Пэкстон (Mayella Violet Ewell), Джеймс Андерсон (Robert E. Lee 'Bob' Ewell), Элис Гостли (Aunt Stephanie Crawford), Роберт Дювалл (Arthur 'Boo' Radley)
Дублёры: Феликс Яворский (Atticus Finch), Олег Мокшанцев (Sheriff Heck Tate), Светлана Коновалова (Maudie Atkinson), Владимир Дружников (Tom Robinson), Галина Фролова (Calpurnia), Николай Граббе (Walter Cunningham Sr.), Ольга Малышева (Scout), Михаил Кисляров (Jem), Яков Беленький (Spence Robinson, Tom's Father)-Описание: Фильм о юристе из Алабамы, воспитывающем без матери своих двоих детей. Помимо темы расовых предрассудков на Юге, это рассказ о том, как двое детей из мира фантазий делают первые шаги в совершенно иной мир подростков, где уже формируются такие понятия, как благородство, сострадание, справедливость и неравенство.
В обстановке экономической депрессии, преисполненной фанатизма и ненависти, мудрый, мягкий, с тихой речью и великолепными манерами алабамский юрист должен защищать в суде негра, ложно обвиненного в изнасиловании.-Сэмпл: http://yadi.sk/d/p-N4nRJs5SWOb-Тип релиза: BDRip 1080p
Контейнер: MKV
Видео: MPEG-4 AVC / 10.3 mbps / 1920x1040 / 23,976 fps / High Profile 4.1
Аудио: DTS Audio Russian 2.0 / 48 kHz / 448 kbps / 24-bit
Аудио 2: Dolby Digital Audio Russian 2.0 / 48 kHz/ 192 kbps / 16 bits
Аудио 3: DTS Audio English 5.1 / 48 kHz / 1536 kbps / 24-bit
Формат субтитров: softsub (SRT)

Видеоряд от CJ

To.Kill.a.Mockingbird.1962.1080p.BluRay.DD5.1.x264-CJ
TOTAL SIZE........: 10.3 GBVIDEO.............: 10.3 mbpsLEVEL.............: [email protected]: 1920x1040FRAMERATE.........: 23.976CODEC.............: x264 0.120.2164 da19765AUDIO #1..........: AC3 5.1 640kbpsAUDIO #2..........: AC3 2.0 192kbps - Commentary with Director Robert Mulligan and Producer Alan PakulaSUBTITLES.........: English (SDH), French, SpanishSOURCE............: To Kill a Mockingbird 1962 1080p Blu-ray VC-1 DTS-HD MA 5.1 (thanks Aniki)
RELEASE DATE......: February 23, 2012IMDb..............: http://www.imdb.com/title/tt0056592/
-
-Source-Encode--


MI

Код:
General
Complete name                    : F:\  -= Фильмы =-\Убить пересмешника (1962. To Kill a Mockingbird).mkv
Format                           : Matroska
File size                        : 11.4 GiB
Duration                         : 2h 9mn
Overall bit rate                 : 12.7 Mbps
Movie name                       : Release for RuTracker
Encoded date                     : UTC 2013-06-03 14:03:16
Writing application              : mkvmerge v4.9.1 ('Ich will') сборка от Jul 11 2011 23:53:15
Writing library                  : libebml v1.2.1 + libmatroska v1.1.1
Cover                            : Yes
Video
ID                               : 1
Format                           : AVC
Format/Info                      : Advanced Video Codec
Format profile                   : [email protected]
Format settings, CABAC           : Yes
Format settings, ReFrames        : 4 frames
Format settings, GOP             : N=1
Muxing mode                      : Container [email protected]
Codec ID                         : V_MPEG4/ISO/AVC
Duration                         : 2h 9mn
Bit rate                         : 10.3 Mbps
Width                            : 1 920 pixels
Height                           : 1 040 pixels
Display aspect ratio             : 16:9
Frame rate                       : 23.976 fps
Color space                      : YUV
Chroma subsampling               : 4:2:0
Bit depth                        : 8 bits
Scan type                        : Progressive
Bits/(Pixel*Frame)               : 0.215
Stream size                      : 9.28 GiB (81%)
Title                            : To.Kill.a.Mockingbird.1962.1080p.BluRay.DD5.1.x264-CJ
Writing library                  : x264 core 120 r2164 da19765
Encoding settings                : cabac=1 / ref=4 / deblock=1:-3:-3 / analyse=0x3:0x113 / me=umh / subme=10 / psy=1 / psy_rd=1.15:0.10 / mixed_ref=1 / me_range=32 / chroma_me=1 / trellis=2 / 8x8dct=1 / cqm=0 / deadzone=21,11 / fast_pskip=1 / chroma_qp_offset=-3 / threads=6 / sliced_threads=0 / nr=0 / decimate=1 / interlaced=0 / bluray_compat=0 / constrained_intra=0 / bframes=8 / b_pyramid=2 / b_adapt=2 / b_bias=0 / direct=3 / weightb=1 / open_gop=0 / weightp=2 / keyint=250 / keyint_min=23 / scenecut=40 / intra_refresh=0 / rc_lookahead=60 / rc=crf / mbtree=1 / crf=16.0 / qcomp=0.60 / qpmin=0 / qpmax=69 / qpstep=4 / ip_ratio=1.40 / aq=1:0.70
Language                         : English
Audio #1
ID                               : 2
Format                           : DTS
Format/Info                      : Digital Theater Systems
Codec ID                         : A_DTS
Duration                         : 2h 9mn
Bit rate mode                    : Constant
Bit rate                         : 448 Kbps
Channel(s)                       : 2 channels
Channel positions                : Front: L R
Sampling rate                    : 48.0 KHz
Bit depth                        : 24 bits
Stream size                      : 414 MiB (4%)
Title                            : Dub
Language                         : Russian
Audio #2
ID                               : 3
Format                           : AC-3
Format/Info                      : Audio Coding 3
Mode extension                   : CM (complete main)
Codec ID                         : A_AC3
Duration                         : 2h 9mn
Bit rate mode                    : Constant
Bit rate                         : 192 Kbps
Channel(s)                       : 2 channels
Channel positions                : Front: L R
Sampling rate                    : 48.0 KHz
Bit depth                        : 16 bits
Stream size                      : 177 MiB (2%)
Title                            : MVO
Language                         : Russian
Audio #3
ID                               : 4
Format                           : DTS
Format/Info                      : Digital Theater Systems
Codec ID                         : A_DTS
Duration                         : 2h 9mn
Bit rate mode                    : Constant
Bit rate                         : 1 510 Kbps
Channel(s)                       : 6 channels
Channel positions                : Front: L C R, Side: L R, LFE
Sampling rate                    : 48.0 KHz
Bit depth                        : 24 bits
Stream size                      : 1.36 GiB (12%)
Language                         : English
Text #1
ID                               : 5
Format                           : UTF-8
Codec ID                         : S_TEXT/UTF8
Codec ID/Info                    : UTF-8 Plain Text
Language                         : Russian
Text #2
ID                               : 6
Format                           : UTF-8
Codec ID                         : S_TEXT/UTF8
Codec ID/Info                    : UTF-8 Plain Text
Language                         : English
Text #3
ID                               : 7
Format                           : UTF-8
Codec ID                         : S_TEXT/UTF8
Codec ID/Info                    : UTF-8 Plain Text
Title                            : French
Language                         : French
Text #4
ID                               : 8
Format                           : UTF-8
Codec ID                         : S_TEXT/UTF8
Codec ID/Info                    : UTF-8 Plain Text
Title                            : Spanish
Language                         : Spanish
Menu
00:00:00.000                     : en:Main Titles
00:02:57.135                     : en:A Tired Old Town
00:07:07.009                     : en:Dill
00:08:50.780                     : en:The Tale of Boo Radley
00:11:03.371                     : en:Five O'clock
00:13:12.750                     : en:Atticus' Watch
00:16:25.859                     : en:The Robinson Case
00:18:05.584                     : en:Boo Radley's House
00:20:48.455                     : en:The Colored Man
00:23:43.672                     : en:A Look at Boo
00:30:13.394                     : en:The "Prowler"
00:32:37.664                     : en:Her First Day of School
00:34:56.427                     : en:The Dinner Guest
00:38:49.952                     : en:A Compromise
00:41:00.166                     : en:The Best Shot in This County
00:44:18.572                     : en:At the Robinsons'
00:48:55.432                     : en:A Sound in the Night
00:50:59.931                     : en:Some High Talk
00:53:31.791                     : en:In the Hollow of That Tree
00:58:43.853                     : en:The Night Before the Trial
01:01:34.899                     : en:The Lynch Mob
01:07:14.113                     : en:Trial Day
01:09:20.698                     : en:The Sheriff's Testimony
01:11:48.387                     : en:Ewell's Version
01:15:38.492                     : en:Mayella
01:19:16.001                     : en:The Other Hand
01:22:35.992                     : en:Tom's Truth
01:31:43.247                     : en:The Broken Code
01:39:06.482                     : en:The Verdict
01:42:02.324                     : en:Stand Up, Your Father's Passing
01:43:27.993                     : en:The Lost Heart
01:47:47.669                     : en:A Death in the Family
01:51:13.124                     : en:Our Longest Journey
01:55:00.101                     : en:Death in the Dark
01:56:44.497                     : en:Out of the Woods
01:59:24.532                     : en:Mr. Arthur Radley
02:02:38.517                     : en:Let the Dead Bury the Dead
02:05:32.233                     : en:Like Shooting a Mockingbird
02:07:00.112                     : en:The Little Things in-Between

Скриншоты


Other forum [Profile] [PM]
Display posts from previous:    
Reply to topic

The time now is: Today 20:08

All times are GMT + 3 Hours



You cannot post new topics in this forum
You cannot reply to topics in this forum
You cannot edit your posts in this forum
You cannot delete your posts in this forum
You cannot vote in polls in this forum
You cannot attach files in this forum
You cannot download files in this forum