Today is a free download without charge Download

Безумный Макс [Режиссёрская версия] / Mad Max [Director's Cut] (Джордж Миллер / George Miller) (Фантастика, Боевик, 1979) HDRip

Reply to topic
 
Author
Message

Omen ®

Longevity: 8 years 11 months

Posts: 181086

Торрент-статистика

Post 03-Jun-2013 19:03

[Quote]

Безумный Макс [Режиссёрская версия]
Mad Max [Director's Cut]

«The Film That Started It All»
- Русское название: Безумный Макс [Режиссёрская версия]
Оригинальное название: Mad Max [Director's Cut]
Год выпуска: 1979
Жанр: Фантастика, Боевик
Перевод: Дублированный
Субтитры: нет
Описание фильма:
В недалёком будущем, после крупной катастрофы, поразившей нашу урбанистическую цивилизацию, вся жизнь сосредоточилась вдоль бесчисленных магистралей…
Дорога стала способом существования. И дала многим возможность проявлять свои самые жестокие инстинкты. Банда байкеров на мощных мотоциклах, желая рассчитаться за своего убитого товарища, преследует молодого полицейского Макса. В яростной схватке убит другой полицейский, Гус, подобная участь может ждать Макса и его семью.
Ему предстоит самая главная и сложная задача — сохранить жену, сына и выжить самому.
Режиссер: Джордж Миллер / George Miller
Актеры: Мэл Гибсон /Mel Gibson/, Джоан Самуэль /Joanne Samuel/, Роджер Ворд /Roger Ward/, Стив Бизли /Steve Bisley/, Тим Барнс /Tim Burns/, Хью Кейз-Бирн /Hugh Keays-Byrne/
Продолжительность: 01:33:11 (оригинал ~ 01:28:00)
18+
Дата мировой премьеры: 12 апреля 1979
Дата выхода DVD релиза: 7 апреля 2011, «ВС трейд»
Видеокодек: Xvid
Битрейт видео: ~976 kbps
Размер кадра: 688x288
Качество видео: HDRip
Аудиокодек: MP3 2.0
Битрейт аудио: 128 kbps

MediaInfo:

General
Format : AVI
Format/Info : Audio Video Interleave
File size : 742 MiB
Duration : 1h 33mn
Overall bit rate : 1 114 Kbps
Writing application : VirtualDubMod 1.5.10.2 (build 2540/release)
Writing library : VirtualDubMod build 2540/release
Video
ID : 0
Format : MPEG-4 Visual
Format profile : Advanced [email protected]
Format settings, BVOP : 1
Format settings, QPel : No
Format settings, GMC : No warppoints
Format settings, Matrix : Custom
Codec ID : XVID
Codec ID/Hint : XviD
Duration : 1h 33mn
Bit rate : 976 Kbps
Width : 688 pixels
Height : 288 pixels
Display aspect ratio : 2.35:1
Frame rate : 23.976 fps
Color space : YUV
Chroma subsampling : 4:2:0
Bit depth : 8 bits
Scan type : Progressive
Compression mode : Lossy
Bits/(Pixel*Frame) : 0.206
Stream size : 651 MiB (88%)
Writing library : XviD 1.2.1 (UTC 2008-12-04)
Audio
ID : 1
Format : MPEG Audio
Format version : Version 1
Format profile : Layer 3
Codec ID : 55
Codec ID/Hint : MP3
Duration : 1h 33mn
Bit rate mode : Constant
Bit rate : 128 Kbps
Channel(s) : 2 channels
Sampling rate : 48.0 KHz
Compression mode : Lossy
Stream size : 85.3 MiB (11%)
Alignment : Aligned on interleaves
Interleave, duration : 42 ms (1.00 video frame)
Interleave, preload duration : 504 ms
Writing library : LAME3.97
Encoding settings : -m s -V 4 -q 2 -lowpass 17 -b 128

Extended Cut

Расширенная версия была получена путем врезания удаленных и расширенных сцен на свои места.
Скриншоты:
         
-
Other forum [Profile] [PM]
Display posts from previous:    
Reply to topic

The time now is: Today 15:05

All times are GMT + 3 Hours



You cannot post new topics in this forum
You cannot reply to topics in this forum
You cannot edit your posts in this forum
You cannot delete your posts in this forum
You cannot vote in polls in this forum
You cannot attach files in this forum
You cannot download files in this forum