Today is a free download without charge Download

Американская Мэри / American Mary (Джен Соска / Jen Soska, Сильвия Соска / Sylvia Soska) [2012, Канада, ужасы, триллер, BDRip 1080p] DVO (den904 & DeadSno) + Sub Rus + Original Eng

Reply to topic
 
Author
Message

Omen ®

Longevity: 8 years 5 months

Posts: 181087

Торрент-статистика

Post 03-Jun-2013 17:15

[Quote]

Американская Мэри / American Mary
Страна: Канада
Студия: American Mary Productions, IndustryWorks Pictures
Жанр: ужасы, триллер
Год выпуска: 2012
Продолжительность: 01:42:24
Перевод: Любительский (двухголосый закадровый) den904 & DeadSno
Cубтитры: русские, английские
Оригинальная аудиодорожка: английский
Режиссер: Джен Соска / Jen Soska, Сильвия Соска / Sylvia Soska
В ролях: Кэтрин Изабель, Антонио Цупо, Тристан Риск, Дэвид Ловгрен, Паула Линдберг, Клэй Ст. Томас, Джон Эммет Трэйси, Твэн Холлидэй, Нельсон Вонг, Сильвия Соска, Джен Соска, Пол Энтони
Описание: Фильм расскажет нам историю Мэри Мэйсон, которая работает в салоне, специализирующемся на модификации тела человека. Вскоре она понимает что ей нравится уродовать тела и клиентов салона ей становится мало. Она решает уродовать людей на свой вкус, без их согласия.


Тип релиза: BDRip 1080p
Контейнер: MKV
Видео: MPEG-4 AVC Video / 9555 kbps / 1920 x 800 / 23,976 fps / 2,40:1 / High Profile 4.1
Аудио 1: Russian / Dolby Digital Audio / 5.1 / 48 kHz / 384 kbps |den904 & DeadSno|
Аудио 2: English / DTS Audio / 5.1 / 48 kHz / 1509 kbps / 24-bit
Формат субтитров: softsub (SRT)

MediaInfo

Код:
Общее
Уникальный идентификатор                 : 202900576644636676222507105155375024996 (0x98A53AC8FCF11B42BF45802A5D1DCB64)
Полное имя                               : American Mary.2012.BDRip1080p_[/*spam*/].mkv
Формат                                   : Matroska
Версия формата                           : Version 4 / Version 2
Размер файла                             : 8,18 Гбайт
Продолжительность                        : 1 ч. 42 м.
Общий поток                              : 11,4 Мбит/сек
Название фильма                          : American Mary.2012
Дата кодирования                         : UTC 2013-06-03 10:52:45
Программа кодирования                    : mkvmerge v6.1.0 ('Old Devil') built on Mar  2 2013 14:32:37
Библиотека кодирования                   : libebml v1.3.0 + libmatroska v1.4.0
Видео
Идентификатор                            : 1
Формат                                   : AVC
Формат/Информация                        : Advanced Video Codec
Профиль формата                          : [email protected]
Параметр CABAC формата                   : Да
Параметр ReFrames формата                : 5 кадров
Идентификатор кодека                     : V_MPEG4/ISO/AVC
Продолжительность                        : 1 ч. 42 м.
Битрейт                                  : 9555 Кбит/сек
Ширина                                   : 1920 пикселей
Высота                                   : 800 пикселей
Соотношение сторон                       : 2,40:1
Режим частоты кадров                     : Постоянный
Частота кадров                           : 23,976 кадра/сек
Цветовое пространство                    : YUV
Субдискретизация насыщенности            : 4:2:0
Битовая глубина                          : 8 бит
Тип развёртки                            : Прогрессивная
Бит/(Пиксели*Кадры)                      : 0.259
Размер потока                            : 6,67 Гбайт (81%)
Библиотека кодирования                   : x264 core 125 r2208 d9d2288
Настройки программы                      : cabac=1 / ref=5 / deblock=1:-3:-3 / analyse=0x3:0x113 / me=umh / subme=10 / psy=1 / psy_rd=1.00:0.05 / mixed_ref=1 / me_range=32 / chroma_me=1 / trellis=2 / 8x8dct=1 / cqm=0 / deadzone=21,11 / fast_pskip=0 / chroma_qp_offset=-2 / threads=8 / lookahead_threads=1 / sliced_threads=0 / nr=0 / decimate=1 / interlaced=0 / bluray_compat=0 / constrained_intra=0 / bframes=5 / b_pyramid=2 / b_adapt=2 / b_bias=0 / direct=3 / weightb=1 / open_gop=0 / weightp=2 / keyint=250 / keyint_min=23 / scenecut=40 / intra_refresh=0 / rc=2pass / mbtree=0 / bitrate=9555 / ratetol=1.0 / qcomp=0.70 / qpmin=0 / qpmax=69 / qpstep=4 / cplxblur=20.0 / qblur=0.5 / ip_ratio=1.40 / pb_ratio=1.30 / aq=2:1.00
Язык                                     : English
Default                                  : Да
Forced                                   : Нет
Аудио #1
Идентификатор                            : 2
Формат                                   : AC-3
Формат/Информация                        : Audio Coding 3
Расширение режима                        : CM (complete main)
Параметр Endianness формата              : Big
Идентификатор кодека                     : A_AC3
Продолжительность                        : 1 ч. 42 м.
Вид битрейта                             : Постоянный
Битрейт                                  : 384 Кбит/сек
Каналы                                   : 6 каналов
Расположение каналов                     : Front: L C R, Side: L R, LFE
Частота                                  : 48,0 КГц
Битовая глубина                          : 16 бит
Метод сжатия                             : С потерями
Размер потока                            : 281 Мбайт (3%)
Заголовок                                : Любительский (двухголосый закадровый) den904 & DeadSno
Язык                                     : Russian
Default                                  : Да
Forced                                   : Да
Аудио #2
Идентификатор                            : 3
Формат                                   : DTS
Формат/Информация                        : Digital Theater Systems
Режим                                    : 16
Параметр Endianness формата              : Big
Идентификатор кодека                     : A_DTS
Продолжительность                        : 1 ч. 42 м.
Вид битрейта                             : Постоянный
Битрейт                                  : 1509 Кбит/сек
Каналы                                   : 6 каналов
Расположение каналов                     : Front: L C R, Side: L R, LFE
Частота                                  : 48,0 КГц
Битовая глубина                          : 24 бит
Метод сжатия                             : С потерями
Размер потока                            : 1,08 Гбайт (13%)
Язык                                     : English
Default                                  : Нет
Forced                                   : Нет
Текст #1
Идентификатор                            : 4
Формат                                   : UTF-8
Идентификатор кодека                     : S_TEXT/UTF8
Идентификатор кодека/Информация          : UTF-8 Plain Text
Язык                                     : Russian
Default                                  : Нет
Forced                                   : Нет
Текст #2
Идентификатор                            : 5
Формат                                   : UTF-8
Идентификатор кодека                     : S_TEXT/UTF8
Идентификатор кодека/Информация          : UTF-8 Plain Text
Язык                                     : English
Default                                  : Нет
Forced                                   : Нет
Меню
00:00:00.000                             : en:Chapter 01
00:10:13.446                             : en:Chapter 02
00:21:37.171                             : en:Chapter 03
00:30:40.005                             : en:Chapter 04
00:39:10.139                             : en:Chapter 05
00:50:33.739                             : en:Chapter 06
01:02:46.471                             : en:Chapter 07
01:14:45.773                             : en:Chapter 08
01:26:42.906                             : en:Chapter 09
01:37:55.495                             : en:Chapter 10

Скриншоты


Other forum [Profile] [PM]
Display posts from previous:    
Reply to topic

The time now is: Today 02:19

All times are GMT + 3 Hours



You cannot post new topics in this forum
You cannot reply to topics in this forum
You cannot edit your posts in this forum
You cannot delete your posts in this forum
You cannot vote in polls in this forum
You cannot attach files in this forum
You cannot download files in this forum