Today is a free download without charge Download

Girls Dead Monster starring LiSA Tour 2010 Final -Keep The Angel Beats!- [2011, JRock, BDRip 1080p]

Reply to topic
 
Author
Message

Omen ®

Longevity: 8 years 3 months

Posts: 181087

Торрент-статистика

Post 03-Jun-2013 17:15

[Quote]

Girls Dead Monster starring LiSA Tour 2010 Final -Keep The Angel Beats!-
Жанр: J-Rock
Продолжительность: 02:37:00
Год выпуска: 2011
Описание: Concerts of the popular group Girls Dead Monster from the anime series "Angel beats!" Contains 15 songs including "Thousand Enemies," "Alchemy," "Shine Days," "Answer Song,""My Song," "Ichiban no Takaramono," "My Soul, Your Beats!," "Crow Song," and more.
Доп. информация: Tracklist :
1. Thousand Enemies
2. Alchemy
3. Shine Days
4. Rain Song
5. Answer Song
6. Morning Dreamer
7. Brave Song
8. My Song
9. 一番の宝物~Yui final ver.~
10 .My Soul,Your Beats!
11 .23:50
12 .Day Game
13. Run With Wolves
14. Crow Song
EN-01. Highest Life
EN-02. Little Bravel
Качество: BDRip 1080p
Контейнер: MKV
Видео кодек: H.264
Аудио кодек: AC3
Видео: H.264, 1920x1080, 8000 kbps, 29.970 fps
Аудио: AC3, 256 kbps, 48.0kHz, 2 ch
Аудио 2: AC3, 256 kbps, 48.0kHz, 2 ch, Commentary

Отчёт MediaInfo / BDInfo

ОбщееУникальный идентификатор : 217167459635031533784271986389464842230 (0xA360EE6CAD024BC79DF85047FC2AFFF6)Полное имя : D:\[Live][BDRIP] Girls Dead Monster starring LiSA Tour 2010 Final -Keep The Angel Beats!- (ripped by Takae)\[Live][BDRIP] Girls Dead Monster starring LiSA Tour 2010 Final -Keep The Angel Beats!- (ripped by Takae).mkvФормат : MatroskaВерсия формата : Version 2Размер файла : 9,33 ГбайтПродолжительность : 2 ч. 37 м.Режим общего битрейта : ПеременныйОбщий поток : 8512 Кбит/секДата кодирования : UTC 2011-06-13 09:13:32Программа кодирования : mkvmerge v4.8.0 ('I Got The...') built on May 24 2011 03:12:58Библиотека кодирования : libebml v1.2.0 + libmatroska v1.1.0
ВидеоИдентификатор : 1Формат : AVCФормат/Информация : Advanced Video CodecПрофиль формата : [email protected]Параметр CABAC формата : ДаПараметр ReFrames формата : 3 кадраИдентификатор кодека : V_MPEG4/ISO/AVCПродолжительность : 2 ч. 37 м.Вид битрейта : ПеременныйБитрейт : 8000 Кбит/секМаксимальный битрейт : 40,0 Мбит/секШирина : 1920 пикселейВысота : 1080 пикселейСоотношение сторон : 16:9Режим частоты кадров : ПостоянныйЧастота кадров : 29,970 кадров/секЦветовое пространство : YUVСубдискретизация насыщенности : 4:2:0Битовая глубина : 8 битТип развёртки : ПрогрессивнаяБит/(Пиксели*Кадры) : 0.129Размер потока : 8,59 Гбайт (92%)Библиотека кодирования : x264 core 115 r1995 c1e60b9Настройки программы : cabac=1 / ref=3 / deblock=1:0:0 / analyse=0x3:0x113 / me=umh / subme=4 / psy=1 / psy_rd=1.00:0.00 / mixed_ref=1 / me_range=32 / chroma_me=1 / trellis=0 / 8x8dct=1 / cqm=0 / deadzone=21,11 / fast_pskip=1 / chroma_qp_offset=0 / threads=6 / sliced_threads=0 / slices=4 / nr=0 / decimate=0 / interlaced=fake / bluray_compat=1 / constrained_intra=0 / bframes=3 / b_pyramid=1 / b_adapt=1 / b_bias=0 / direct=3 / weightb=1 / open_gop=1 / weightp=1 / keyint=30 / keyint_min=3 / scenecut=40 / intra_refresh=0 / rc_lookahead=30 / rc=2pass / mbtree=1 / bitrate=8000 / ratetol=1.0 / qcomp=0.60 / qpmin=10 / qpmax=51 / qpstep=4 / cplxblur=20.0 / qblur=0.5 / vbv_maxrate=40000 / vbv_bufsize=30000 / nal_hrd=vbr / ip_ratio=1.40 / aq=1:1.00Язык : EnglishDefault : ДаForced : НетОсновные цвета : BT.709Характеристики трансфера : BT.709Коэффициенты матрицы : BT.709
Аудио #1Идентификатор : 2Формат : AC-3Формат/Информация : Audio Coding 3Расширение режима : CM (complete main)Параметр Endianness формата : BigИдентификатор кодека : A_AC3Продолжительность : 2 ч. 37 м.Вид битрейта : ПостоянныйБитрейт : 256 Кбит/секКаналы : 2 каналаРасположение каналов : Front: L RЧастота : 48,0 КГцБитовая глубина : 16 битМетод сжатия : С потерямиРазмер потока : 287 Мбайт (3%)Язык : JapaneseDefault : ДаForced : Нет
Аудио #2Идентификатор : 3Формат : AC-3Формат/Информация : Audio Coding 3Расширение режима : CM (complete main)Параметр Endianness формата : BigИдентификатор кодека : A_AC3Продолжительность : 2 ч. 37 м.Вид битрейта : ПостоянныйБитрейт : 256 Кбит/секКаналы : 2 каналаРасположение каналов : Front: L RЧастота : 48,0 КГцБитовая глубина : 16 битМетод сжатия : С потерямиРазмер потока : 287 Мбайт (3%)Язык : JapaneseDefault : НетForced : Нет
Меню00:00:00.000 : en:Prologue00:01:53.113 : en:Intro00:03:17.113 : en:Thousand Enemies00:08:29.542 : en:Alchemy00:13:05.918 : en:Shine Days00:17:55.073 : en:Rain Song00:23:19.097 : en:Answer Song00:29:20.759 : en:Morning Dreamer00:33:24.402 : en:Brave Song00:39:36.373 : en:MC100:46:52.810 : en:My Song00:52:11.027 : en:一番の宝物~Yui final ver.~00:58:45.522 : en:Piano Solo01:04:34.871 : en:My Soul, Your Beats!01:09:28.497 : en:23:5001:14:08.877 : en:MC201:14:56.992 : en:Day Game01:21:53.909 : en:Run with Wolves01:26:06.161 : en:Crow Song01:30:59.454 : en:Encore01:34:29.096 : en:MC301:48:48.922 : en:Highest Life01:56:33.553 : en:MC401:58:52.458 : en:Little Braver02:06:28.080 : en:Line up02:34:16.247 : en:End Roll

Скриншоты




Other forum [Profile] [PM]
Display posts from previous:    
Reply to topic

The time now is: Today 04:18

All times are GMT + 3 Hours



You cannot post new topics in this forum
You cannot reply to topics in this forum
You cannot edit your posts in this forum
You cannot delete your posts in this forum
You cannot vote in polls in this forum
You cannot attach files in this forum
You cannot download files in this forum