Today is a free download without charge Download

Рука, качающая колыбель / The Hand That Rocks the Cradle (Кёртис Хэнсон) [1992, триллер, драма, BDRip 720p]

Reply to topic
 
Author
Message

Delia ®

Gender:

Longevity: 10 years

Posts: 1821

Торрент-статистика

Post 03-Jun-2013 09:17

[Quote]

-Рука, качающая колыбельThe Hand That Rocks the Cradle«Behind a beautiful face, beneath a dangerous smile, lies a revenge that can't be stopped.»--
Год выпуска: 1992
Страна: США
Жанр: триллер, драма
Продолжительность: 01:50:20
Перевод: Профессиональный (двухголосый закадровый)
Субтитры: Russian , English (srt)
Режиссер: Кёртис Хэнсон
Сценарий: Аманда Сильвер
Продюсер: Роберт В. Корт, Тед Филд, Ира Халберстадт, ...
Оператор: Роберт Элсвит
Композитор: Грэм Ревелл, Артур Салливан
Художник: Эдвард Пизони, Марк Зюльзке, Дженнифер фон Мэйрхаузер, ...
Монтаж: Джон Ф. Линк-
В ролях: Аннабелла Шиорра / Annabella Sciorra (Claire Bartel), Ребекка Де Морнэй / Rebecca De Mornay (Mrs. Mott, Peyton Flanders), Мэтт МакКой / Matt McCoy (Michael Bartel), Эрни Хадсон / Ernie Hudson (Solomon), Джулианна Мур / Julianne Moore (Marlene Craven), Мадлен Зима / Madeline Zima (Emma Bartel), Джон де Ланси / John de Lancie (Dr. Victor Mott), Кевин Скаусен / Kevin Skousen (Marty Craven), Митчелл Лоранс / Mitchell Laurance (Lawyer), Джастин Заремби / Justin Zaremby (Roth, the Schoolyard Bully)
Описание: Муж Пэйтон Фландерс, обвиненный в сексуальных домогательствах к своим пациенткам, кончает жизнь самоубийством. Потрясение с этим связанное приводит к преждевременным родам, и ребенок Пэйтон рождается мертвым.Кто-то должен заплатить за это, и Пэйтон устраивается сиделкой в дом женщины, которая первой выдвинула обвинения против ее мужа.-- Бюджет: $11 700 000
Сборы в США: $88 036 683
Зрители: США 21.2 млн
Премьера (мир): 10 января 1992, ...
--
Рейтинг MPAA: Лицам до 17 лет обязательно присутствие взрослого
Рейтинг ВКИП: для детей старше 16 лет-
Качество: BDRip
Формат: MKV
Видео кодек: H.264 (AVC)
Аудио кодеk: AC3
Видео:
1280x694 (1.85:1), 23.976 fps, AVC, 8 347 Kbps
Аудио: Аудио #1: AC3, 192 Kbps, 48.0 KHz, 2 ch RUS DVO НТВ
Аудио #2: AC3, 192 Kbps, 48.0 KHz, 2 ch RUS DVO
Аудио #3: AC3, 192 Kbps, 48.0 KHz, 2 ch RUS MVO
Аудио #4: AC3, 192 Kbps, 48.0 KHz, 2 ch RUS AVO А.Гаврилов
Аудио #5: AC3, 448 Kbps, 48.0 KHz, 6 ch ENG

--

МедиаИнфо

Код:
x264 [info]: frame I:1158 Avg QP:16.05 size:139750
x264 [info]: frame P:27862 Avg QP:17.27 size: 78814
x264 [info]: frame B:129722 Avg QP:19.31 size: 36313
********************************************************
General
Unique ID                                : 171839160759576600391781512155328077947 (0x814704BE8C28C4C980816C6CAEB6E07B)
Complete name                            : Hand That Rocks(1992)720p.F-HD .mkv
Format                                   : Matroska
Format version                           : Version 4 / Version 2
File size                                : 7.52 GiB
Duration                                 : 1h 50mn
Overall bit rate                         : 9 758 Kbps
Encoded date                             : UTC 2013-06-03 05:01:34
Writing application                      : mkvmerge v6.2.0 ('Promised Land') built on Apr 28 2013 12:22:01
Writing library                          : libebml v1.3.0 + libmatroska v1.4.0
Video
ID                                       : 1
Format                                   : AVC
Format/Info                              : Advanced Video Codec
Format profile                           : [email protected]
Format settings, CABAC                   : Yes
Format settings, ReFrames                : 11 frames
Codec ID                                 : V_MPEG4/ISO/AVC
Duration                                 : 1h 50mn
Bit rate                                 : 8 347 Kbps
Width                                    : 1 280 pixels
Height                                   : 694 pixels
Display aspect ratio                     : 1.85:1
Frame rate mode                          : Constant
Frame rate                               : 23.976 fps
Color space                              : YUV
Chroma subsampling                       : 4:2:0
Bit depth                                : 8 bits
Scan type                                : Progressive
Bits/(Pixel*Frame)                       : 0.392
Stream size                              : 6.43 GiB (86%)
Writing library                          : x264 core 133 r2334kMod a3ac64b
Encoding settings                        : cabac=1 / ref=11 / deblock=1:-3:-3 / analyse=0x3:0x113 / me=umh / subme=11 / psy=1 / fade_compensate=0.00 / psy_rd=1.15:0.05 / mixed_ref=1 / me_range=32 / chroma_me=1 / trellis=2 / 8x8dct=1 / cqm=0 / deadzone=21,11 / fast_pskip=1 / chroma_qp_offset=-3 / threads=6 / lookahead_threads=1 / sliced_threads=0 / nr=0 / decimate=1 / interlaced=0 / bluray_compat=0 / constrained_intra=0 / bframes=12 / b_pyramid=2 / b_adapt=2 / b_bias=0 / direct=3 / weightb=1 / open_gop=0 / weightp=2 / keyint=250 / keyint_min=23 / scenecut=40 / intra_refresh=0 / rc_lookahead=40 / rc=crf / mbtree=0 / crf=17.5000 / qcomp=0.75 / qpmin=0 / qpmax=69 / qpstep=4 / vbv_maxrate=50000 / vbv_bufsize=62500 / crf_max=0.0 / nal_hrd=none / ip_ratio=1.40 / pb_ratio=1.30 / aq=1:0.75
Language                                 : English
Default                                  : Yes
Forced                                   : No
Color primaries                          : BT.709
Transfer characteristics                 : BT.709
Matrix coefficients                      : BT.709
Audio #1
ID                                       : 2
Format                                   : AC-3
Format/Info                              : Audio Coding 3
Mode extension                           : CM (complete main)
Format settings, Endianness              : Big
Codec ID                                 : A_AC3
Duration                                 : 1h 50mn
Bit rate mode                            : Constant
Bit rate                                 : 192 Kbps
Channel(s)                               : 2 channels
Channel positions                        : Front: L R
Sampling rate                            : 48.0 KHz
Bit depth                                : 16 bits
Compression mode                         : Lossy
Stream size                              : 152 MiB (2%)
Title                                    : DVO . (НТВ)
Language                                 : Russian
Default                                  : Yes
Forced                                   : No
Audio #2
ID                                       : 3
Format                                   : AC-3
Format/Info                              : Audio Coding 3
Mode extension                           : CM (complete main)
Format settings, Endianness              : Big
Codec ID                                 : A_AC3
Duration                                 : 1h 50mn
Bit rate mode                            : Constant
Bit rate                                 : 192 Kbps
Channel(s)                               : 2 channels
Channel positions                        : Front: L R
Sampling rate                            : 48.0 KHz
Bit depth                                : 16 bits
Compression mode                         : Lossy
Stream size                              : 152 MiB (2%)
Title                                    : DVO
Language                                 : Russian
Default                                  : No
Forced                                   : No
Audio #3
ID                                       : 4
Format                                   : AC-3
Format/Info                              : Audio Coding 3
Mode extension                           : CM (complete main)
Format settings, Endianness              : Big
Codec ID                                 : A_AC3
Duration                                 : 1h 50mn
Bit rate mode                            : Constant
Bit rate                                 : 192 Kbps
Channel(s)                               : 2 channels
Channel positions                        : Front: L R
Sampling rate                            : 48.0 KHz
Bit depth                                : 16 bits
Compression mode                         : Lossy
Stream size                              : 152 MiB (2%)
Title                                    : MVO
Language                                 : Russian
Default                                  : No
Forced                                   : No
Audio #4
ID                                       : 5
Format                                   : AC-3
Format/Info                              : Audio Coding 3
Mode extension                           : CM (complete main)
Format settings, Endianness              : Big
Codec ID                                 : A_AC3
Duration                                 : 1h 50mn
Bit rate mode                            : Constant
Bit rate                                 : 192 Kbps
Channel(s)                               : 2 channels
Channel positions                        : Front: L R
Sampling rate                            : 48.0 KHz
Bit depth                                : 16 bits
Compression mode                         : Lossy
Stream size                              : 152 MiB (2%)
Title                                    : AVO . А.Гаврилов
Language                                 : Russian
Default                                  : No
Forced                                   : No
Audio #5
ID                                       : 6
Format                                   : AC-3
Format/Info                              : Audio Coding 3
Mode extension                           : CM (complete main)
Format settings, Endianness              : Big
Codec ID                                 : A_AC3
Duration                                 : 1h 50mn
Bit rate mode                            : Constant
Bit rate                                 : 448 Kbps
Channel(s)                               : 6 channels
Channel positions                        : Front: L C R, Side: L R, LFE
Sampling rate                            : 48.0 KHz
Bit depth                                : 16 bits
Compression mode                         : Lossy
Stream size                              : 354 MiB (5%)
Language                                 : English
Default                                  : No
Forced                                   : No
Text #1
ID                                       : 7
Format                                   : UTF-8
Codec ID                                 : S_TEXT/UTF8
Codec ID/Info                            : UTF-8 Plain Text
Language                                 : Russian
Default                                  : No
Forced                                   : No
Text #2
ID                                       : 8
Format                                   : UTF-8
Codec ID                                 : S_TEXT/UTF8
Codec ID/Info                            : UTF-8 Plain Text
Language                                 : English
Default                                  : No
Forced                                   : No
Menu
00:00:00.000                             : en:00:00:00.000
00:07:52.180                             : en:00:07:52.180
00:16:17.810                             : en:00:16:17.810
00:26:18.910                             : en:00:26:18.910
00:40:52.408                             : en:00:40:52.408
00:48:04.464                             : en:00:48:04.464
00:57:36.828                             : en:00:57:36.828
01:04:35.496                             : en:01:04:35.496
01:08:32.691                             : en:01:08:32.691
01:16:28.750                             : en:01:16:28.750
01:27:00.590                             : en:01:27:00.590
01:35:48.033                             : en:01:35:48.033
01:42:56.461                             : en:01:42:56.461
01:47:10.590                             : en:01:47:10.590

Знаете ли Вы, что...

★ Клэр сообщает полиции адрес «808 Якима». Это настоящий адрес дома, в котором снимался фильм.

Скриншоты

       
       

_________________
Человек – это канат, натянутый между животным и сверхчеловеком, – канат над пропастью.
В человеке ценно то, что он мост, а не цель. Фридрих Ницше
Other forum [Profile] [PM]
Display posts from previous:    
Reply to topic

The time now is: Today 04:46

All times are GMT + 3 Hours



You cannot post new topics in this forum
You cannot reply to topics in this forum
You cannot edit your posts in this forum
You cannot delete your posts in this forum
You cannot vote in polls in this forum
You cannot attach files in this forum
You cannot download files in this forum