Today is a free download without charge Download

Охотники за привидениями / Ghost Busters (Айвен Райтман / Ivan Reitman) [1984, фантастика, фэнтези, боевик, комедия, BDRip 720p] [4K Remastered] Dub + 4х MVO + 5х AVO + 2х Ukr + Original (Eng) + Subs (Eng, Rus, Dut, Fre, Spa)

Reply to topic
 
Author
Message

Omen ®

Longevity: 8 years 5 months

Posts: 181087

Торрент-статистика

Post 03-Jun-2013 04:53

[Quote]

Охотники за привидениями | Ghost Busters-««Кто-то борется с тараканами и насекомыми. Они очищают город от привидений»»- Год выпуска: 1984
Страна: США, Black Rhino Productions, Columbia Pictures Corporation, Delphi Films-Жанры: фантастика, фэнтези, боевик, комедия
Продолжительность: 01:45:08-Перевод:
  • Профессиональный (полное дублирование) Варус Видео
  • Профессиональный многоголосый BD EUR
  • Профессиональный многоголосый ОРТ
  • Профессиональный многоголосый РТР
  • Профессиональный многоголосый Ren TV
  • Авторский одноголосый Ю. Живов
  • Авторский одноголосый Г. Либергал
  • Авторский одноголосый А. Михалёв
  • Авторский одноголосый В.Горчаков (поздний/ранний)
  • Профессиональный многоголосый Украина
  • Профессиональный многоголосый 1+1
-Cубтитры: Russian (Forced), Russian, English, English (SDH), French, Spanish, Dutch
Навигация по главам: есть
Режиссер: Айвен Райтман / Ivan Reitman-В ролях: Билл Мюррей, Дэн Эйкройд, Сигурни Уивер, Харольд Рэмис, Рик Морэнис, Энни Поттс, Уильям Этертон, Эрни Хадсон, Дэвид Маргулис, Стивен Тэш-Описание: В конце двадцатого века оказывается, что в Нью - Йорке живут не только обычные граждане, но и... привидения. Многомиллионное население не может противостоять натиску сверхъестественного.
В конце концов на пути бесчисленных монстров не остается никого - кроме троих ученых - парапсихологов, которым известно все о потустороннем мире, правда только в теории. И теперь им придется оставить пыльные кабинеты и применить свои знания на практике...- -Качество: BDRip (CHD)
Источник: Ghostbusters 1984 Mastered in 4K 1080p Blu-ray AVC TrueHD 5.1-Shadowman
Формат: MKV
Видео кодек: x264
Аудио кодек: DTS, AC3
Видео: x264 L4.1 High, ~9701 Kbps, 1280x536, 23,976 fps
Аудио 1: Russian 48 kHz, AC3 5.1 @ 640 Kbps (MVO -> BD EUR)
Аудио 2: Russian 48 kHz, AC3 5.1 @ 448 Kbps (MVO -> ТК "ОРТ")
Аудио 3: Russian 48 kHz, AC3 2.0 @ 192 Kbps (MVO -> ТК "РТР")
Аудио 4: Russian 48 kHz, AC3 2.0 @ 192 Kbps (MVO -> ТК "Ren TV")
Аудио 5: Russian 48 kHz, AC3 2.0 @ 192 Kbps (DUB -> "Варус Видео")
Аудио 6: Russian 48 kHz, DTS 5.1 @ 1510 Kbps (AVO-> Ю.Живов)
Аудио 7: Russian 48 kHz, AC3 5.1 @ 448 Kbps (AVO -> Г.Либергал)
Аудио 8: Russian 48 kHz, AC3 5.1 @ 448 Kbps (AVO -> В.Горчаков) (поздний)
Аудио 9: Russian 48 kHz, AC3 2.0 @ 192 Kbps (AVO -> В.Горчаков) (ранний)
Аудио 10: Russian 48 kHz, AC3 2.0 @ 192 Kbps (AVO -> А.Михалёв)
Аудио 11: Ukrainian 48 kHz, AC3 1.0 @ 192 Kbps (MVO -> ТК "Украина")
Аудио 12: Ukrainian 48 kHz, AC3 1.0 @ 192 Kbps (MVO -> ТК "1+1")
Аудио 13: English 48 kHz, DTS 5.1 @ 1510 Kbps

Знаете ли вы, что...

• Создатели картины не смогли перенести дату релиза на более позднюю дату, и летом 1984 года на экраны США вышла «сырая» версия фильма с недоделанными спецэффектами и некоторыми сюжетными неточностями. Но к счастью, зрители проигнорировали эти недостатки и принесли авторам фильма неплохие кассовые сборы.
• Роль Питера Венкмана писалась под Джона Белуши.
• Роль Уинстона разрабатывалась под Эдди Мерфи.
• По сценарию первое появление человека-зефира должно было произойти на фоне статуи Свободы, чтобы показать разницу в размерах, но эта сцена была признана слишком сложной для съемки, и из сценария ее пришлось убрать.
• В качестве подогрева интереса к картине, режиссер картины Айвен Райтман пошел на довольно интересную авантюру. В ротацию был запущен рекламный ролик, в котором традиционное для кинокартин начало телефонного номера «555» было заменено на обычное «1-800». Любопытные обыватели, дозвонившиеся по этому номеру, могли услышать в ответ специально записанное послание в исполнении Билла Мюррея и Дэна Эйкройда. В течение шести недель каждый час на этот номер поступало около 1000 звонков.
• Заглавная песня из кинофильма, написанная Рэем Паркером младшим, три недели возглавляла Billboard.
• По первоначальной задумке Эктомобиль должен был быть полностью черным. Но после того, как было принято решение, что большая часть автосъемок пройдет ночью, машину перекрасили в белый цвет.
• Питера Венкмана мог сыграть Стив Гуттенберг, но он предпочел «Охотникам за привидениями» работу в «Полицейской академии».
• Первоначально сценарий назывался «Ghost Smashers»
• На самом деле, в 1982 году Айвен Рейтман планировал экранизировать «Автостопом по галактике» (с Биллом Мюрреем и Дэном Эйкройдом), но вместо этого снял «Охотников за привидениями».
• Демонический голос Даны/Зуул принадлежит Айвену Рейтману.
• В первоначальном варианте сценария Гарольда Рэмиса действие происходит в будущем, причем на разных планетах. Но Рейтман сказал, что такой фильм стоил бы 300 миллионов долларов (и это — в 1984 году), поэтому сценарий пришлось переписать.
• Привидение по имени «Лизун» в оригинале звался «Лукоголовым» из-за скверного запаха изо рта.
• Дом, где живет Дана, существует на самом деле, но вместо 22 этажей в нем всего лишь 20 (address: 55 Central Park West, New York).
• Гозер изначально должен был выглядеть как человек в деловом костюме и его должен был играть артист Пол Ройбенс, но тот отказался от роли. Точно так же отказалась и панк-рокерша Энн Карлайл от роли Зуул.
• На роль Игона рассматривались кандидатуры Кристофера Уокена, Джона Литгоу, Джеффа Голдблума и Кристофера Ллойда.
• Роль Питера Вэнкмана предлагали также Майклу Китону, а после того, как он от нее отказался, ему предложили роль Игона. Китон отказался и от нее. Другим претендентом был Чеви Чейз. Он отказался, а потом аргументировал это тем, что ему подсунули черновой сценарий, где все было мрачно и страшно.
• Роль Луиса (сыгранная Риком Моранисом) предназначалась для Джона Кэнди, но тот отказался после того, как его идеи насчет характера персонажа были отвергнуты Рейтманом.

Подробные тех. данные

General
Unique ID : 226977096800480249764982792879557654322 (0xAAC232E0BE511C69A747EB8CB1E13732)
Complete name : D:\Фильмы\Ghostbusters.1984.REMASTERED.BluRay.720p.x264.Rus.Ukr.Eng-CHD.mkv
Format : Matroska
Format version : Version 2
File size : 11.8 GiB
Duration : 1h 45mn
Overall bit rate : 16.0 Mbps
Movie name : BLUEBIRD
Encoded date : UTC 2013-05-23 13:42:51
Writing application : mkvmerge v5.8.0 ('No Sleep / Pillow') built on Sep 2 2012 15:37:04
Writing library : libebml v1.2.3 + libmatroska v1.3.0
Video
ID : 1
Format : AVC
Format/Info : Advanced Video Codec
Format profile : [email protected]
Format settings, CABAC : Yes
Format settings, ReFrames : 12 frames
Codec ID : V_MPEG4/ISO/AVC
Duration : 1h 45mn
Bit rate : 9 701 Kbps
Width : 1 280 pixels
Height : 536 pixels
Display aspect ratio : 2.40:1
Frame rate mode : Constant
Frame rate : 23.976 fps
Color space : YUV
Chroma subsampling : 4:2:0
Bit depth : 8 bits
Scan type : Progressive
Bits/(Pixel*Frame) : 0.590
Stream size : 6.89 GiB (58%)
Title : [email protected]
Writing library : x264 core 132 r2310 76a5c3a
Encoding settings : cabac=1 / ref=12 / deblock=1:-3:-3 / analyse=0x3:0x113 / me=umh / subme=11 / psy=1 / psy_rd=1.10:0.10 / mixed_ref=1 / me_range=32 / chroma_me=1 / trellis=2 / 8x8dct=1 / cqm=0 / deadzone=21,11 / fast_pskip=0 / chroma_qp_offset=-2 / threads=12 / lookahead_threads=1 / sliced_threads=0 / nr=0 / decimate=1 / interlaced=0 / bluray_compat=0 / constrained_intra=0 / bframes=6 / b_pyramid=2 / b_adapt=2 / b_bias=0 / direct=3 / weightb=1 / open_gop=0 / weightp=2 / keyint=250 / keyint_min=23 / scenecut=40 / intra_refresh=0 / rc_lookahead=40 / rc=2pass / mbtree=0 / bitrate=9701 / ratetol=1.0 / qcomp=0.70 / qpmin=0 / qpmax=69 / qpstep=4 / cplxblur=20.0 / qblur=0.5 / vbv_maxrate=40000 / vbv_bufsize=30000 / nal_hrd=none / ip_ratio=1.40 / pb_ratio=1.30 / aq=2:0.90
Language : English
Default : Yes
Forced : No
Audio #1
ID : 2
Format : AC-3
Format/Info : Audio Coding 3
Mode extension : CM (complete main)
Format settings, Endianness : Big
Codec ID : A_AC3
Duration : 1h 45mn
Bit rate mode : Constant
Bit rate : 640 Kbps
Channel(s) : 6 channels
Channel positions : Front: L C R, Side: L R, LFE
Sampling rate : 48.0 KHz
Bit depth : 16 bits
Compression mode : Lossy
Stream size : 481 MiB (4%)
Title : MVO -> BD EUR
Language : Russian
Default : Yes
Forced : No
Audio #2
ID : 3
Format : AC-3
Format/Info : Audio Coding 3
Mode extension : CM (complete main)
Format settings, Endianness : Big
Codec ID : A_AC3
Duration : 1h 45mn
Bit rate mode : Constant
Bit rate : 448 Kbps
Channel(s) : 6 channels
Channel positions : Front: L C R, Side: L R, LFE
Sampling rate : 48.0 KHz
Bit depth : 16 bits
Compression mode : Lossy
Stream size : 337 MiB (3%)
Title : MVO - ТК "ОРТ
Language : Russian
Default : No
Forced : No
Audio #3
ID : 4
Format : AC-3
Format/Info : Audio Coding 3
Mode extension : CM (complete main)
Format settings, Endianness : Big
Codec ID : A_AC3
Duration : 1h 45mn
Bit rate mode : Constant
Bit rate : 192 Kbps
Channel(s) : 2 channels
Channel positions : Front: L R
Sampling rate : 48.0 KHz
Bit depth : 16 bits
Compression mode : Lossy
Stream size : 144 MiB (1%)
Title : MVO-РТР VHSRip
Language : Russian
Default : No
Forced : No
Audio #4
ID : 5
Format : AC-3
Format/Info : Audio Coding 3
Mode extension : CM (complete main)
Format settings, Endianness : Big
Codec ID : A_AC3
Duration : 1h 45mn
Bit rate mode : Constant
Bit rate : 192 Kbps
Channel(s) : 2 channels
Channel positions : Front: L R
Sampling rate : 48.0 KHz
Bit depth : 16 bits
Compression mode : Lossy
Stream size : 144 MiB (1%)
Title : MVO-REN-TV VHSRip
Language : Russian
Default : No
Forced : No
Audio #5
ID : 6
Format : AC-3
Format/Info : Audio Coding 3
Mode extension : CM (complete main)
Format settings, Endianness : Big
Codec ID : A_AC3
Duration : 1h 45mn
Bit rate mode : Constant
Bit rate : 192 Kbps
Channel(s) : 2 channels
Channel positions : Front: L R
Sampling rate : 48.0 KHz
Bit depth : 16 bits
Compression mode : Lossy
Stream size : 144 MiB (1%)
Title : DUB - "Варус Видео"
Language : Russian
Default : No
Forced : No
Audio #6
ID : 7
Format : DTS
Format/Info : Digital Theater Systems
Mode : 16
Format settings, Endianness : Big
Codec ID : A_DTS
Duration : 1h 45mn
Bit rate mode : Constant
Bit rate : 1 510 Kbps
Channel(s) : 6 channels
Channel positions : Front: L C R, Side: L R, LFE
Sampling rate : 48.0 KHz
Bit depth : 24 bits
Compression mode : Lossy
Stream size : 1.11 GiB (9%)
Title : AVO-Ю.Живов
Language : Russian
Default : No
Forced : No
Audio #7
ID : 8
Format : AC-3
Format/Info : Audio Coding 3
Mode extension : CM (complete main)
Format settings, Endianness : Big
Codec ID : A_AC3
Duration : 1h 45mn
Bit rate mode : Constant
Bit rate : 448 Kbps
Channel(s) : 6 channels
Channel positions : Front: L C R, Side: L R, LFE
Sampling rate : 48.0 KHz
Bit depth : 16 bits
Compression mode : Lossy
Stream size : 337 MiB (3%)
Title : AVO - Г.Либергал
Language : Russian
Default : No
Forced : No
Audio #8
ID : 9
Format : AC-3
Format/Info : Audio Coding 3
Mode extension : CM (complete main)
Format settings, Endianness : Big
Codec ID : A_AC3
Duration : 1h 45mn
Bit rate mode : Constant
Bit rate : 448 Kbps
Channel(s) : 6 channels
Channel positions : Front: L C R, Side: L R, LFE
Sampling rate : 48.0 KHz
Bit depth : 16 bits
Compression mode : Lossy
Stream size : 337 MiB (3%)
Title : AVO - В.Горчаков (поздний)
Language : Russian
Default : No
Forced : No
Audio #9
ID : 10
Format : AC-3
Format/Info : Audio Coding 3
Mode extension : CM (complete main)
Format settings, Endianness : Big
Codec ID : A_AC3
Duration : 1h 45mn
Bit rate mode : Constant
Bit rate : 192 Kbps
Channel(s) : 2 channels
Channel positions : Front: L R
Sampling rate : 48.0 KHz
Bit depth : 16 bits
Compression mode : Lossy
Stream size : 144 MiB (1%)
Title : AVO - В.Горчаков (ранний)
Language : Russian
Default : No
Forced : No
Audio #10
ID : 11
Format : AC-3
Format/Info : Audio Coding 3
Mode extension : CM (complete main)
Format settings, Endianness : Big
Codec ID : A_AC3
Duration : 1h 45mn
Bit rate mode : Constant
Bit rate : 192 Kbps
Channel(s) : 2 channels
Channel positions : Front: L R
Sampling rate : 48.0 KHz
Bit depth : 16 bits
Compression mode : Lossy
Stream size : 144 MiB (1%)
Title : AVO - А.Михалёв
Language : Russian
Default : No
Forced : No
Audio #11
ID : 12
Format : AC-3
Format/Info : Audio Coding 3
Mode extension : CM (complete main)
Format settings, Endianness : Big
Codec ID : A_AC3
Duration : 1h 45mn
Bit rate mode : Constant
Bit rate : 192 Kbps
Channel(s) : 1 channel
Channel positions : Front: C
Sampling rate : 48.0 KHz
Bit depth : 16 bits
Compression mode : Lossy
Stream size : 144 MiB (1%)
Title : MVO - ТК "Украина"
Language : Ukrainian
Default : No
Forced : No
Audio #12
ID : 13
Format : AC-3
Format/Info : Audio Coding 3
Mode extension : CM (complete main)
Format settings, Endianness : Big
Codec ID : A_AC3
Duration : 1h 45mn
Bit rate mode : Constant
Bit rate : 192 Kbps
Channel(s) : 1 channel
Channel positions : Front: C
Sampling rate : 48.0 KHz
Bit depth : 16 bits
Compression mode : Lossy
Stream size : 144 MiB (1%)
Title : MVO - ТК "1+1"
Language : Ukrainian
Default : No
Forced : No
Audio #13
ID : 14
Format : DTS
Format/Info : Digital Theater Systems
Mode : 16
Format settings, Endianness : Big
Codec ID : A_DTS
Duration : 1h 45mn
Bit rate mode : Constant
Bit rate : 1 510 Kbps
Channel(s) : 6 channels
Channel positions : Front: L C R, Side: L R, LFE
Sampling rate : 48.0 KHz
Bit depth : 24 bits
Compression mode : Lossy
Stream size : 1.11 GiB (9%)
Title : English DTS 5.1 1509Kbps(from TrueHD5.1)
Language : English
Default : No
Forced : No
Text #1
ID : 15
Format : UTF-8
Codec ID : S_TEXT/UTF8
Codec ID/Info : UTF-8 Plain Text
Title : Forced
Language : Russian
Default : Yes
Forced : No
Text #2
ID : 16
Format : UTF-8
Codec ID : S_TEXT/UTF8
Codec ID/Info : UTF-8 Plain Text
Language : Russian
Default : No
Forced : No
Text #3
ID : 17
Format : UTF-8
Codec ID : S_TEXT/UTF8
Codec ID/Info : UTF-8 Plain Text
Language : English
Default : No
Forced : No
Text #4
ID : 18
Format : UTF-8
Codec ID : S_TEXT/UTF8
Codec ID/Info : UTF-8 Plain Text
Title : SDH
Language : English
Default : No
Forced : No
Text #5
ID : 19
Format : UTF-8
Codec ID : S_TEXT/UTF8
Codec ID/Info : UTF-8 Plain Text
Language : Dutch
Default : No
Forced : No
Text #6
ID : 20
Format : UTF-8
Codec ID : S_TEXT/UTF8
Codec ID/Info : UTF-8 Plain Text
Language : French
Default : No
Forced : No
Text #7
ID : 21
Format : UTF-8
Codec ID : S_TEXT/UTF8
Codec ID/Info : UTF-8 Plain Text
Language : Spanish
Default : No
Forced : No
Menu
00:00:00.000 : en:00:00:00.000
00:06:39.065 : en:00:06:39.065
00:15:46.445 : en:00:15:46.445
00:21:50.059 : en:00:21:50.059
00:28:35.756 : en:00:28:35.756
00:34:51.965 : en:00:34:51.965
00:39:06.678 : en:00:39:06.678
00:48:46.715 : en:00:48:46.715
00:52:15.883 : en:00:52:15.883
00:55:04.051 : en:00:55:04.051
01:04:33.411 : en:01:04:33.411
01:10:41.946 : en:01:10:41.946
01:13:35.286 : en:01:13:35.286
01:18:58.525 : en:01:18:58.525
01:25:17.029 : en:01:25:17.029
01:30:44.731 : en:01:30:44.731

Скриншоты

Other forum [Profile] [PM]
Similar theme
Forum Topic Author Torrent Replies Last Post
./templates/default/images/folder_dl.gif Приключения и квесты Mystery Trackers: Blackrow\'s Secret Collector\'s Edition / Охотники за тайнами. Загадка рода Блэкроу. Коллекционное издание [P] [RUS / ENG] (2014) Omen
1 | 0

0 | 2609

27

2015-06-06 00:09
Omen Latest
Display posts from previous:    
Reply to topic

The time now is: Today 22:21

All times are GMT + 3 Hours



You cannot post new topics in this forum
You cannot reply to topics in this forum
You cannot edit your posts in this forum
You cannot delete your posts in this forum
You cannot vote in polls in this forum
You cannot attach files in this forum
You cannot download files in this forum