Today is a free download without charge Download

Queen of the Stone Age - Album de la semaine(Live,Canal+,1.05.2013) [2013, alternative, stoner rock, HDTV 1080i]

Reply to topic
 
Author
Message

Omen ®

Longevity: 8 years 4 months

Posts: 181087

Торрент-статистика

Post 03-Jun-2013 00:25

[Quote]

Queen of the Stone Age - Album de la semaine(Live,Canal+,1.06.2013)- Жанр: alternative, stoner rock
Продолжительность: 00:18:34
Год выпуска: 2013
Описание: Keep Your Eyes Peeled - The Vampyre of Time and Memory - My God Is the Sun - Like ClockworkКачество: HDTV 1080i
Контейнер: TS
Видео кодек: H.264
Аудио кодек: AC3
Видео: H.264; 1920x1080; 10.2 Mbps ; 25.000 fps
Аудио: AC-3; 192 Kbps; 48.0 KHz; 2 ch

Отчёт MediaInfo

Complete name : Queen of the Stone Age(C+).tsFormat : MPEG-TSFile size : 1.42 GiBDuration : 18mn 34sOverall bit rate mode : VariableOverall bit rate : 10.9 Mbps
VideoID : 160 (0xA0)Menu ID : 8801 (0x2261)Format : AVCFormat/Info : Advanced Video CodecFormat profile : [email protected] settings, CABAC : YesFormat settings, ReFrames : 4 framesCodec ID : 27Duration : 18mn 34sBit rate : 10.2 MbpsWidth : 1 920 pixelsHeight : 1 080 pixelsDisplay aspect ratio : 16:9Frame rate : 25.000 fpsColor space : YUVChroma subsampling : 4:2:0Bit depth : 8 bitsScan type : MBAFFBits/(Pixel*Frame) : 0.197Stream size : 1.32 GiB (93%)Color primaries : BT.709Transfer characteristics : BT.709Matrix coefficients : BT.709
AudioID : 82 (0x52)Menu ID : 8801 (0x2261)Format : AC-3Format/Info : Audio Coding 3Mode extension : CM (complete main)Format settings, Endianness : BigCodec ID : 6Duration : 18mn 34sBit rate mode : ConstantBit rate : 192 KbpsChannel(s) : 2 channelsChannel positions : Front: L RSampling rate : 48.0 KHzBit depth : 16 bitsCompression mode : LossyDelay relative to video : 12msStream size : 25.5 MiB (2%)Language : French

Скриншоты

Other forum [Profile] [PM]
Display posts from previous:    
Reply to topic

The time now is: Today 11:33

All times are GMT + 3 Hours



You cannot post new topics in this forum
You cannot reply to topics in this forum
You cannot edit your posts in this forum
You cannot delete your posts in this forum
You cannot vote in polls in this forum
You cannot attach files in this forum
You cannot download files in this forum