Today is a free download without charge Download

Девочка и слон (Леонид Амальрик) [1969, Рисованная анимация, Детский] DVDRip

Reply to topic
 
Author
Message

sashau ®

Gender:

Longevity: 8 years 10 months

Posts: 3497

Торрент-статистика

Post 02-Jun-2013 16:24

[Quote]

Девочка и слон (1969) DVDRip- Русское название: Девочка и слон
Год выпуска: 1969
Жанр: Рисованная анимация, Детский
Описание:
О заболевшей девочке, которая выздоровела, когда к ней привели настоящего живого слона.
Режиссер: Леонид Амальрик
Персонажи: -
Продолжительность: 00:18:56
Перевод: Без слов / Немой

Видеокодек: Xvid
Битрейт видео: ~1659 kb/s
Размер кадра: 704x528
Качество видео: DVDRip
Аудиокодек: AC3, 2 ch
Битрейт аудио: ~192 kb/s
Сэмпл: Ссылка

MediaInfo

Общее
Полное имя : E:\Фильмы\Хорошие фильмы\Девочка и слон.avi
Формат : AVI
Формат/Информация : Audio Video Interleave
Размер файла : 251 Мбайт
Продолжительность : 18 м.
Общий поток : 1857 Кбит/сек
Видео
Идентификатор : 0
Формат : MPEG-4 Visual
Профиль формата : Advanced [email protected]
Параметр BVOP формата : 2
Параметр QPel формата : Нет
Параметр GMC формата : Без точки перехода
Параметр матрицы формата : Default (H.263)
Режим смешивания : Сжатый битовый поток
Идентификатор кодека : XVID
Идентификатор кодека/Подсказка : XviD
Продолжительность : 18 м.
Битрейт : 1659 Кбит/сек
Ширина : 704 пикселя
Высота : 528 пикселей
Соотношение сторон : 4:3
Частота кадров : 25,000 кадров/сек
Цветовое пространство : YUV
Субдискретизация насыщенности : 4:2:0
Битовая глубина : 8 бит
Тип развёртки : Прогрессивная
Метод сжатия : С потерями
Бит/(Пиксели*Кадры) : 0.179
Размер потока : 225 Мбайт (89%)
Библиотека кодирования : XviD 1.2.1 (UTC 2008-12-04)
Аудио
Идентификатор : 1
Формат : AC-3
Формат/Информация : Audio Coding 3
Расширение режима : CM (complete main)
Идентификатор кодека : 2000
Продолжительность : 18 м.
Вид битрейта : Постоянный
Битрейт : 192 Кбит/сек
Каналы : 2 канала
Расположение каналов : Front: L R
Частота : 48,0 КГц
Битовая глубина : 16 бит
Метод сжатия : С потерями
Размер потока : 26,0 Мбайт (10%)
Выравнивание : Соединение по промежуткам
Продолжительность промежутка : 200 мс. (5,00 видеокадров)
Скриншоты:
       
Other forum [Profile] [PM]
Display posts from previous:    
Reply to topic

The time now is: Today 22:33

All times are GMT + 3 Hours



You cannot post new topics in this forum
You cannot reply to topics in this forum
You cannot edit your posts in this forum
You cannot delete your posts in this forum
You cannot vote in polls in this forum
You cannot attach files in this forum
You cannot download files in this forum