Today is a free download without charge Download

Управляющий Сансё / Sanshô dayû (Кэндзи Мидзогути / Kenji Mizoguchi) [1954, Япония, драма, BDRip 720p] Sub (Rus, Eng) + Original

Reply to topic
 
Author
Message

Omen ®

Longevity: 8 years 5 months

Posts: 181087

Торрент-статистика

Post 02-Jun-2013 16:17

[Quote]

Управляющий Сансё / Sanshô dayû
Страна: Япония
Жанр: драма
Год выпуска: 1954
Продолжительность: 02:04:25
Перевод: Субтитры
Cубтитры: русские, ангнлийские
Оригинальная аудиодорожка: японский-Режиссер: Кэндзи Мидзогути / Kenji Mizoguchi
В ролях: Эйтаро Синдо, Кандзи Кошиба, Кинуё Танака, Кёко Кагава, Акитакэ Като, Масао Шимицу, Кен Мицуда, Итирё Сугаи, Тиэко Нанива, Кикуэ Мори, Йокио Хорикита, Рёсукэ Кагава, Сёдзо Нанбу, Сабуро Датэ, Сумао Ишихара, Итиро Амано, Акира Шимицу, Дзюн Фудзикава
Описание: Экранизация одноимённого рассказа Мори Огая.
В средневековой Японии изгоняют либерального политика Таира, который утверждает, что человек без сострадания уже не человек. Его сын Дзусио вместе и сестрой попадают в рабство к жестокому правителю Сансё, а их мать похищают и она становится проституткой на далеком острове. Так начинается одно из величайших психологических и философских странствий в истории кино.
Проходит много лет, и взрослый Дзусио становится одним из самых верных сторонников Сансё. Ему придется многое пережить, чтобы осознать, каким жестоким он стал, и восстановить свою честь и честь семьи.
IMDb || КиноПоиск-Тип релиза: BDRip 720p [DON]
Контейнер: MKV
Видео: H.264/AVC, 960x720 at 23.976 fps, ~11059 kbps
Аудио#1: Japanese: 48 kHz, AC3 1.0, 192 kbps
Аудио#2: Japanese: 48 kHz, FLAC 1.0, 182 kbps
Аудио#3: English: 48 kHz, AC3 1.0, 192 kbps |Commentary featuring Jeffrey Angles (japanese-literature scholar)|
Формат субтитров: softsub (SRT)
Сэмпл

MediaInfo

Format : Matroska
Format version : Version 2
File size : 10.1 GiB
Duration : 2h 4mn
Overall bit rate mode : Variable
Overall bit rate : 11.6 Mbps
Encoded date : UTC 2013-06-02 11:10:18
Writing application : mkvmerge v5.0.1 ('Es ist Sommer') built on Nov 6 2011 16:23:40
Writing library : libebml v1.2.2 + libmatroska v1.3.0
Video
ID : 1
Format : AVC
Format/Info : Advanced Video Codec
Format profile : [email protected]
Format settings, CABAC : Yes
Format settings, ReFrames : 12 frames
Codec ID : V_MPEG4/ISO/AVC
Duration : 2h 4mn
Width : 960 pixels
Height : 720 pixels
Display aspect ratio : 4:3
Frame rate : 23.976 fps
Color space : YUV
Chroma subsampling : 4:2:0
Bit depth : 8 bits
Scan type : Progressive
Title : DON
Writing library : x264 core 129 r2245 bc13772
Encoding settings : cabac=1 / ref=12 / deblock=1:-3:-3 / analyse=0x3:0x133 / me=umh / subme=10 / psy=1 / psy_rd=1.00:0.00 / mixed_ref=1 / me_range=32 / chroma_me=1 / trellis=2 / 8x8dct=1 / cqm=0 / deadzone=21,11 / fast_pskip=0 / chroma_qp_offset=-2 / threads=3 / lookahead_threads=1 / sliced_threads=0 / nr=0 / decimate=0 / interlaced=0 / bluray_compat=0 / constrained_intra=0 / bframes=8 / b_pyramid=2 / b_adapt=2 / b_bias=0 / direct=3 / weightb=1 / open_gop=0 / weightp=2 / keyint=250 / keyint_min=23 / scenecut=40 / intra_refresh=0 / rc_lookahead=60 / rc=crf / mbtree=1 / crf=17.5 / qcomp=0.75 / qpmin=0 / qpmax=69 / qpstep=4 / ip_ratio=1.40 / aq=1:0.80
Language : Japanese
Default : Yes
Forced : No
Audio #1
ID : 2
Format : AC-3
Format/Info : Audio Coding 3
Mode extension : CM (complete main)
Codec ID : A_AC3
Duration : 2h 4mn
Bit rate mode : Constant
Bit rate : 192 Kbps
Channel(s) : 1 channel
Channel positions : Front: C
Sampling rate : 48.0 KHz
Bit depth : 16 bits
Compression mode : Lossy
Stream size : 171 MiB (2%)
Language : Japanese
Default : Yes
Forced : No
Audio #2
ID : 3
Format : FLAC
Format/Info : Free Lossless Audio Codec
Codec ID : A_FLAC
Duration : 2h 4mn
Bit rate mode : Variable
Channel(s) : 1 channel
Sampling rate : 48.0 KHz
Bit depth : 16 bits
Writing library : libFLAC 1.2.1 (UTC 2007-09-17)
Language : Japanese
Default : No
Forced : No
Audio #3
ID : 4
Format : AC-3
Format/Info : Audio Coding 3
Mode extension : CM (complete main)
Codec ID : A_AC3
Duration : 2h 4mn
Bit rate mode : Constant
Bit rate : 192 Kbps
Channel(s) : 1 channel
Channel positions : Front: C
Sampling rate : 48.0 KHz
Bit depth : 16 bits
Compression mode : Lossy
Stream size : 171 MiB (2%)
Title : Commentary featuring Jeffrey Angles
Language : English
Default : No
Forced : No
Text #1
ID : 5
Format : UTF-8
Codec ID : S_TEXT/UTF8
Codec ID/Info : UTF-8 Plain Text
Language : Russian
Default : Yes
Forced : No
Text #2
ID : 6
Format : UTF-8
Codec ID : S_TEXT/UTF8
Codec ID/Info : UTF-8 Plain Text
Language : English
Default : No
Forced : No
Menu
00:00:00.000 : :00:00:00.000
00:02:57.469 : :00:02:57.469
00:06:44.821 : :00:06:44.821
00:11:03.538 : :00:11:03.538
00:15:37.603 : :00:15:37.603
00:22:51.579 : :00:22:51.579
00:25:42.124 : :00:25:42.124
00:30:03.093 : :00:30:03.093
00:37:15.275 : :00:37:15.275
00:41:38.955 : :00:41:38.955
00:50:18.599 : :00:50:18.599
00:53:46.974 : :00:53:46.974
00:58:41.017 : :00:58:41.017
01:08:10.336 : :01:08:10.336
01:12:37.895 : :01:12:37.895
01:19:26.345 : :01:19:26.345
01:24:14.049 : :01:24:14.049
01:28:20.003 : :01:28:20.003
01:31:56.344 : :01:31:56.344
01:41:12.316 : :01:41:12.316
01:46:48.068 : :01:46:48.068
01:49:39.406 : :01:49:39.406
01:53:45.777 : :01:53:45.777

Скриншоты

DON vs Source
Other forum [Profile] [PM]
Similar theme
Forum Topic Author Torrent Replies Last Post
./templates/default/images/folder_dl.gif Компьютерная литература Владимир Куперштейн | Microsoft Project 2013 в управлении проектами + CD (2014) [PDF, ISO] sashau
2 | 0

0 | 3797

23

2014-08-10 09:20
sashau Latest
./templates/default/images/folder_dl.gif Компьютерная литература Никита Культин | Инструменты управления проектами Project Expert и Microsoft Project (2009) [PDF] moralis
2 | 0

0 | 721

5

2016-09-09 22:35
moralis Latest
Display posts from previous:    
Reply to topic

The time now is: Today 11:57

All times are GMT + 3 Hours



You cannot post new topics in this forum
You cannot reply to topics in this forum
You cannot edit your posts in this forum
You cannot delete your posts in this forum
You cannot vote in polls in this forum
You cannot attach files in this forum
You cannot download files in this forum