Today is a free download without charge Download

Дьявол в деталях / The Devil's in the Details (Уэймон Бун / Waymon Boone) [2013, США, триллер, BDRemux 1080p] VO (den904) + Sub Eng + Original Eng

Reply to topic
 
Author
Message

Omen ®

Longevity: 8 years 5 months

Posts: 181087

Торрент-статистика

Post 02-Jun-2013 16:17

[Quote]

Дьявол в деталях / The Devil's in the Details
Страна: США
Жанр: триллер
Год выпуска: 2013
Продолжительность: 01:40:17
Перевод: Одноголосый закадровый den904
Cубтитры: английские [SDH]
Оригинальная аудиодорожка: английский
-
Режиссер: Уэймон Бун / Waymon Boone
В ролях: Рэй Лиотта, Эмилио Ривера, Джоэль Томпсон, Рэймонд Дж. Бэрри, Ноэль Гульеми, Лэйн Гаррисон, Jake Jacobson, Тина Ивлев, Артуро дель Пуэрто, Альберт Такур
-
Описание: Обычное утро обычного дня в Ногалесе, штат Аризона. Жизнь бывшего военнослужащего Томаса Конрада кардинально меняется, когда его похищают члены наркокартеля, чтобы с его помощью переправить наркотики через границу.

Тип релиза: BDRemux 1080p
Контейнер: MKV
Видео: MPEG-4 AVC / NTSC 16:9 / 1920x1080 (2,40:1) / 23995 kbps / 23,976 fps / 0.507 bit/pixel / [email protected]
Аудио 1: Russian / AC3 / 48 kHz / 5 Ch / 448 kbps / 16 bit / VO
Аудио 2: English / DTS-HD Master Audio / 5 Ch / 48 kHz / 3511 kbps / 24-bit (DTS Core: 5 Ch / 48 kHz / 1509 kbps / 24-bit) / Original
Формат субтитров: softsub (SRT)
Навигация по главам: есть

Доп.инфо

На диске у оригинальной дороги LFE-канал пустой, равно как и у русской, посему обе дороги пересобрал в 5 Ch.

eac3to

Код:
DTS Master Audio, 5.1 channels, 24 bits, 48kHz
(core: DTS, 5.1 channels, 24 bits, 1509kbps, 48kHz)
Decoding with ArcSoft DTS Decoder...
Applying RAW/PCM delay...
Writing WAVs...
Creating file "W:\00001.track_4352.SR.wav"...
Creating file "W:\00001.track_4352.L.wav"...
Creating file "W:\00001.track_4352.SL.wav"...
Creating file "W:\00001.track_4352.C.wav"...
Creating file "W:\00001.track_4352.LFE.wav"...
Creating file "W:\00001.track_4352.R.wav"...
Original audio track, L+R+C+SL+SR: constant bit depth of 24 bits.
Original audio track, LFE: no audio data.
eac3to processing took 6 minutes, 43 seconds.
Done.

MediaInfo

Общее
Уникальный идентификатор : 210700429642363364713995949818734642676 (0x9E836D3A87B43CE3BD408C8173CF05F4)
Полное имя : W:\BDRemux 1080p\The Devil's in the Details.2013.BDRemux.1080p.mkv
Формат : Matroska
Версия формата : Version 4 / Version 2
Размер файла : 19,5 Гбайт
Продолжительность : 1 ч. 40 м.
Режим общего битрейта : Переменный
Общий поток : 27,8 Мбит/сек
Дата кодирования : UTC 2013-06-02 07:43:34
Программа кодирования : mkvmerge v6.2.0 ('Promised Land') built on Apr 28 2013 12:22:01
Библиотека кодирования : libebml v1.3.0 + libmatroska v1.4.0
Видео
Идентификатор : 1
Формат : AVC
Формат/Информация : Advanced Video Codec
Профиль формата : [email protected]
Параметр CABAC формата : Да
Параметр ReFrames формата : 4 кадра
Идентификатор кодека : V_MPEG4/ISO/AVC
Продолжительность : 1 ч. 40 м.
Вид битрейта : Переменный
Битрейт : 25,2 Мбит/сек
Максимальный битрейт : 38,0 Мбит/сек
Ширина : 1920 пикселей
Высота : 1080 пикселей
Соотношение сторон : 16:9
Режим частоты кадров : Постоянный
Частота кадров : 23,976 кадра/сек
Цветовое пространство : YUV
Субдискретизация насыщенности : 4:2:0
Битовая глубина : 8 бит
Тип развёртки : Прогрессивная
Бит/(Пиксели*Кадры) : 0.507
Размер потока : 17,7 Гбайт (91%)
Язык : English
Default : Да
Forced : Нет
Аудио #1
Идентификатор : 2
Формат : AC-3
Формат/Информация : Audio Coding 3
Расширение режима : CM (complete main)
Параметр Endianness формата : Big
Идентификатор кодека : A_AC3
Продолжительность : 1 ч. 40 м.
Вид битрейта : Постоянный
Битрейт : 448 Кбит/сек
Каналы : 5 каналов
Расположение каналов : Front: L C R, Side: L R
Частота : 48,0 КГц
Битовая глубина : 16 бит
Метод сжатия : С потерями
Размер потока : 321 Мбайт (2%)
Заголовок : den904
Язык : Russian
Default : Да
Forced : Нет
Аудио #2
Идентификатор : 3
Формат : DTS
Формат/Информация : Digital Theater Systems
Профиль формата : MA / Core
Идентификатор кодека : A_DTS
Продолжительность : 1 ч. 40 м.
Вид битрейта : Переменный
Битрейт : 1561 Кбит/сек / 1510 Кбит/сек
Каналы : 5 каналов
Расположение каналов : Front: L C R, Side: L R
Частота : 48,0 КГц
Битовая глубина : 24 бит
Метод сжатия : Без потерь / Lossy
Заголовок : Original
Язык : English
Default : Нет
Forced : Нет
Текст
Идентификатор : 4
Формат : UTF-8
Идентификатор кодека : S_TEXT/UTF8
Идентификатор кодека/Информация : UTF-8 Plain Text
Заголовок : Original [SDH]
Язык : English
Default : Нет
Forced : Нет
Меню
00:00:00.000 : en:
00:02:05.125 : en:
00:11:22.681 : en:
00:29:47.786 : en:
00:47:28.845 : en:
00:57:07.424 : en:
01:12:50.366 : en:
01:38:15.889 : en:
01:40:17.594 : en:

Скриншоты

Other forum [Profile] [PM]
Display posts from previous:    
Reply to topic

The time now is: Today 04:28

All times are GMT + 3 Hours



You cannot post new topics in this forum
You cannot reply to topics in this forum
You cannot edit your posts in this forum
You cannot delete your posts in this forum
You cannot vote in polls in this forum
You cannot attach files in this forum
You cannot download files in this forum