Today is a free download without charge Download

Маскарад / Создатель масок / Maskerade / Mask Maker (Грифф Ферст / Griff Furst) [2010, США, ужасы, BDRemux 1080p] DVO (НТВ+) + VO (R1shpil) + Original (Eng) + Subs (Eng)

Reply to topic
 
Author
Message

Omen ®

Longevity: 8 years 5 months

Posts: 181087

Торрент-статистика

Post 02-Jun-2013 16:17

[Quote]

Маскарад / Maskerade

-
-Страна: США
Студия: Active Entertainment, Bullet Films
Жанр: ужасы
Год выпуска: 2010
Продолжительность: 01:29:54--Перевод 1: Профессиональный (двухголосый закадровый) НТВ+
Перевод 2: Одноголосый закадровый R1shpil
Cубтитры: английские
Оригинальная аудиодорожка: английский--Режиссер: Грифф Ферст / Griff Furst
В ролях: Никки Делоач, Стивен Коллетти, Анабелла Касанова, Росс Бритс, Терри Кайзер, Мария Боннер, А.Дж. Аллегра, Лара Грис, Майкл Берриман, Трит Уильямс--Описание: На день рождения Дженнифер бойфренд Эван привёз её за город к ветхому двухэтажному особняку времён гражданской войны и гордо объявил, что купил его в рассрочку и оформил на её имя. Дженнифер покорно приняла подарок, и решив привести своё новое жильё в порядок, парочка вскоре отправилась в близлежащий посёлок за стройматериалами.
Местные жители настороженно отнеслись к тому, что у особняка появились новые хозяева, и посоветовали молодёжи на всякий случай не трогать ничего на заднем дворе. Однако было уже поздно: днём ранее Эван нашёл там торчавшее из земли индейское копьё и убрал его с глаз долой, после чего на том месте появилась зловещая яма, похожая на разрытую могилу.--imdb | kinopoisk | Сэмпл--Тип релиза: BDRemux 1080p [Mask.Maker.2010.DUAL.COMPLETE.BLURAY-SMAHD]
Контейнер: MKV
Видео: MPEG-4 AVC / 24940 kbps / 1920x1080 / 23,976 fps / 16:9 / High Profile 4.1
Аудио 1: AC3 / 2.0 / 48 kHz / 448 kbps / 16 bits |DVO|
Аудио 2: AC3 / 2.0 / 48 kHz / 192 kbps / 16 bits |VO|
Аудио 3: DTS-HD Master Audio / 5.1 / 48 kHz / 4186 kbps / 24 bits (DTS Core: 5.1 / 48 kHz / 1510 kbps / 24 bits) |original|
Формат субтитров: softsub [SRT]

MediaInfo

Общее
Уникальный идентификатор : 209716434655825135206348194236866523413 (0x9DC5EA87B7926FDBA0B00983531C7115)
Полное имя : G:\HD\Маскарад.2010.Blu-Ray.Remux.(1080p).mkv
Формат : Matroska
Версия формата : Version 2
Размер файла : 18,7 Гбайт
Продолжительность : 1 ч. 29 м.
Режим общего битрейта : Переменный
Общий поток : 29,8 Мбит/сек
Дата кодирования : UTC 2013-06-01 19:24:48
Программа кодирования : mkvmerge v5.8.0 ('No Sleep / Pillow') built on Sep 2 2012 15:37:04
Библиотека кодирования : libebml v1.2.3 + libmatroska v1.3.0
Видео
Идентификатор : 1
Формат : AVC
Формат/Информация : Advanced Video Codec
Профиль формата : [email protected]
Параметр CABAC формата : Да
Параметр ReFrames формата : 4 кадра
Режим смешивания : Container [email protected]
Идентификатор кодека : V_MPEG4/ISO/AVC
Продолжительность : 1 ч. 29 м.
Вид битрейта : Переменный
Номинальный битрейт : 25,0 Гбит/сек
Максимальный битрейт : 30,0 Мбит/сек
Ширина : 1920 пикселей
Высота : 1080 пикселей
Соотношение сторон : 16:9
Режим частоты кадров : Постоянный
Частота кадров : 23,976 кадра/сек
Стандарт вещания : Component
Цветовое пространство : YUV
Субдискретизация насыщенности : 4:2:0
Битовая глубина : 8 бит
Тип развёртки : Прогрессивная
Бит/(Пиксели*Кадры) : 502.850
Библиотека кодирования : x264 core 124
Настройки программы : cabac=1 / ref=4 / deblock=1:0:0 / analyse=0x3:0x133 / me=umh / subme=9 / psy=1 / psy_rd=1.00:0.00 / mixed_ref=1 / me_range=24 / chroma_me=1 / trellis=2 / 8x8dct=1 / cqm=2 / deadzone=21,11 / fast_pskip=1 / chroma_qp_offset=-4 / threads=18 / sliced_threads=0 / slices=4 / nr=0 / decimate=1 / interlaced=0 / bluray_compat=1 / constrained_intra=0 / bframes=2 / b_pyramid=0 / b_adapt=2 / b_bias=0 / direct=3 / weightb=1 / open_gop=1 / weightp=1 / keyint=24 / keyint_min=1 / scenecut=40 / intra_refresh=0 / rc_lookahead=24 / rc=2pass / mbtree=1 / bitrate=25000000 / ratetol=1.0 / qcomp=0.60 / qpmin=5 / qpmax=69 / qpstep=4 / cplxblur=20.0 / qblur=0.5 / vbv_maxrate=30000000 / vbv_bufsize=30000000 / nal_hrd=vbr / ip_ratio=1.40 / aq=1:1.00
Default : Да
Forced : Нет
Основные цвета : BT.709
Характеристики трансфера : BT.709
Коэффициенты матрицы : BT.709
Аудио #1
Идентификатор : 2
Формат : AC-3
Формат/Информация : Audio Coding 3
Расширение режима : CM (complete main)
Параметр Endianness формата : Big
Идентификатор кодека : A_AC3
Продолжительность : 1 ч. 29 м.
Вид битрейта : Постоянный
Битрейт : 448 Кбит/сек
Каналы : 2 канала
Расположение каналов : Front: L R
Частота : 48,0 КГц
Битовая глубина : 16 бит
Метод сжатия : С потерями
Размер потока : 288 Мбайт (2%)
Заголовок : DVO, НТВ+
Язык : Russian
Default : Да
Forced : Нет
Аудио #2
Идентификатор : 3
Формат : AC-3
Формат/Информация : Audio Coding 3
Расширение режима : CM (complete main)
Параметр Endianness формата : Big
Идентификатор кодека : A_AC3
Продолжительность : 1 ч. 29 м.
Вид битрейта : Постоянный
Битрейт : 192 Кбит/сек
Каналы : 2 канала
Расположение каналов : Front: L R
Частота : 48,0 КГц
Битовая глубина : 16 бит
Метод сжатия : С потерями
Размер потока : 123 Мбайт (1%)
Заголовок : VO, R1shpil
Язык : Russian
Default : Нет
Forced : Нет
Аудио #3
Идентификатор : 4
Формат : DTS
Формат/Информация : Digital Theater Systems
Профиль формата : MA / Core
Режим : 16
Параметр Endianness формата : Big
Идентификатор кодека : A_DTS
Продолжительность : 1 ч. 29 м.
Вид битрейта : Переменный
Битрейт : Неизвестно / 1509 Кбит/сек
Каналы : 6 каналов
Расположение каналов : Front: L C R, Side: L R, LFE
Частота : 48,0 КГц
Битовая глубина : 24 бит
Метод сжатия : Без потерь / Lossy
Язык : English
Default : Нет
Forced : Нет
Текст
Идентификатор : 5
Формат : UTF-8
Идентификатор кодека : S_TEXT/UTF8
Идентификатор кодека/Информация : UTF-8 Plain Text
Язык : English
Default : Нет
Forced : Нет
Меню
00:00:00.000 : :Chapter 01
00:06:59.961 : :Chapter 02
00:13:59.964 : :Chapter 03
00:20:59.967 : :Chapter 04
00:27:59.928 : :Chapter 05
00:34:59.931 : :Chapter 06
00:41:59.934 : :Chapter 07
00:48:59.895 : :Chapter 08
00:55:59.898 : :Chapter 09
01:02:59.942 : :Chapter 10
01:09:59.945 : :Chapter 11
01:16:59.906 : :Chapter 12

Скриншоты


Дополнительно

Цитата:
Релиз доступен благодаря проекту GORESEWAGE!
VO взята с этой раздачи, thx: R1shpil
Other forum [Profile] [PM]
Display posts from previous:    
Reply to topic

The time now is: Today 10:57

All times are GMT + 3 Hours



You cannot post new topics in this forum
You cannot reply to topics in this forum
You cannot edit your posts in this forum
You cannot delete your posts in this forum
You cannot vote in polls in this forum
You cannot attach files in this forum
You cannot download files in this forum