Today is a free download without charge Download

Водопровод на огород (Нина Василенко) [1964 г., рисованный мультфильм, DVB]

Reply to topic
 
Author
Message

Omen ®

Longevity: 7 years 11 months

Posts: 181087

Торрент-статистика

Post 02-Jun-2013 12:15

[Quote]

Водопровод на огород
Жанр: рисованный мультфильм
Год выпуска: 1964
Продолжительность: 00:10:13
Режиссёр: Нина Василенко
Описание: История о том, как муравьи, лягушата, мышата и другие звери боролись за спасение своего урожая с засухой. Дружно берутся за сбор воды различные насекомые - обитатели огорода, а когда солнце высушивает весь их урожай, они под руководством Жука-ученого сооружают водопровод ...
Трансляция спутникового канала: "Карусель"
Качество видео: DVB
Формат видео: MPEG-PS
Видео: MPEG2 Video, 720x576, 25 fps, 3700 kbps
Аудио: MPEG Audio, 2 сh, 48 kHz, 192 kbps

MediaInfo

D:\Водопровод на огород. (1964)_DVB by SLuMeP.mpg
General
Complete name : D:\Водопровод на огород. (1964)_DVB by SLuMeP.mpg
Format : MPEG-PS
File size : 292 MiB
Duration : 10mn 13s
Overall bit rate mode : Variable
Overall bit rate : 3 994 Kbps
Video #224
ID : 224 (0xE0)
Format : MPEG Video
Format version : Version 2
Format profile : [email protected]
Format settings, BVOP : Yes
Format settings, Matrix : Custom
Format settings, GOP : M=3, N=12
Duration : 10mn 13s
Bit rate mode : Variable
Bit rate : 3 722 Kbps
Maximum bit rate : 5 000 Kbps
Width : 720 pixels
Height : 576 pixels
Display aspect ratio : 4:3
Frame rate : 25.000 fps
Standard : PAL
Color space : YUV
Chroma subsampling : 4:2:0
Bit depth : 8 bits
Scan type : Interlaced
Scan order : Top Field First
Compression mode : Lossy
Bits/(Pixel*Frame) : 0.359
Time code of first frame : 00:00:00:00
Time code source : Group of pictures header
Stream size : 272 MiB (93%)
Audio #192
ID : 192 (0xC0)
Format : MPEG Audio
Format version : Version 1
Format profile : Layer 2
Duration : 10mn 13s
Bit rate mode : Constant
Bit rate : 192 Kbps
Channel(s) : 2 channels
Sampling rate : 48.0 KHz
Compression mode : Lossy
Stream size : 14.1 MiB (5%)

Скриншоты

Other forum [Profile] [PM]
Display posts from previous:    
Reply to topic

The time now is: Today 03:55

All times are GMT + 3 Hours



You cannot post new topics in this forum
You cannot reply to topics in this forum
You cannot edit your posts in this forum
You cannot delete your posts in this forum
You cannot vote in polls in this forum
You cannot attach files in this forum
You cannot download files in this forum