Today is a free download without charge Download

Beth Hart and Jeff Beck - I'd Rather Go Blind [2012, Rock, Blues, HDTV 1080i]

Reply to topic
 
Author
Message

Omen ®

Longevity: 8 years 4 months

Posts: 181087

Торрент-статистика

Post 02-Jun-2013 12:15

[Quote]

Beth Hart Jeff Beck
- I'd Rather Go Blind -
The 35th Annual Kennedy Center Honors - Buddy Guy Tribute

Жанр: Rock, Blues
Продолжительность: 00:03:35
Год выпуска: 2012
-Качество: HDTV 1080i
Контейнер: MKV
Видео кодек: MPEG2
Аудио кодек: AC3
Видео: MPEG2 Video 1920x1080 29.97fps 14.4 Mbps
Аудио: Dolby AC3 48000Hz 6ch

Отчёт MediaInfo / BDInfo

GeneralUnique ID : 192852970842990477367059528408438899671 (0x9116219275D00C8D9F8C3C289D8783D7)Complete name : K:\ Beth Hart and Jeff Beck - I'd Rather Go Blind.mkvFormat : MatroskaFormat version : Version 2File size : 387 MiBDuration : 3mn 34sOverall bit rate mode : VariableOverall bit rate : 15.1 MbpsEncoded date : UTC 2013-06-02 03:16:40Writing application : mkvmerge v6.2.0 ('Promised Land') built on Apr 28 2013 12:22:01Writing library : libebml v1.3.0 + libmatroska v1.4.0
VideoID : 1Format : MPEG VideoFormat version : Version 2Format profile : [email protected] settings, BVOP : NoFormat settings, Matrix : CustomCodec ID : V_MPEG2Codec ID/Info : MPEG 1 or 2 VideoDuration : 3mn 34sBit rate mode : VariableBit rate : 14.4 MbpsMaximum bit rate : 80.0 MbpsWidth : 1 920 pixelsHeight : 1 080 pixelsDisplay aspect ratio : 16:9Frame rate mode : ConstantFrame rate : 29.970 fpsColor space : YUVChroma subsampling : 4:2:0Bit depth : 8 bitsScan type : InterlacedScan order : Top Field FirstCompression mode : LossyBits/(Pixel*Frame) : 0.232Time code of first frame : 00:00:00;00Time code source : Group of pictures headerStream size : 369 MiB (95%)Default : YesForced : NoColor primaries : BT.709Transfer characteristics : BT.709Matrix coefficients : BT.709
AudioID : 2Format : AC-3Format/Info : Audio Coding 3Mode extension : CM (complete main)Format settings, Endianness : BigCodec ID : A_AC3Duration : 3mn 34sBit rate mode : ConstantBit rate : 384 KbpsChannel(s) : 6 channelsChannel positions : Front: L C R, Side: L R, LFESampling rate : 48.0 KHzBit depth : 16 bitsCompression mode : LossyDelay relative to video : 17msStream size : 9.83 MiB (3%)Language : EnglishDefault : YesForced : No
Other forum [Profile] [PM]
Display posts from previous:    
Reply to topic

The time now is: Today 21:29

All times are GMT + 3 Hours



You cannot post new topics in this forum
You cannot reply to topics in this forum
You cannot edit your posts in this forum
You cannot delete your posts in this forum
You cannot vote in polls in this forum
You cannot attach files in this forum
You cannot download files in this forum