Today is a free download without charge Download

Омен: Трилогия / Omen: Trilogy (1976-1981) [1080p] Blu-ray

Reply to topic
 
Author
Message

Omen ®

Longevity: 7 years

Posts: 181090

Торрент-статистика

Post 09-Aug-2011 22:06

[Quote]

Омен: Трилогия
Omen: Trilogy (1976-1981)
--Омен I: Антихрист / Omen I: The Antichrist
Год выпуска: 1976
Продолжительность: 01:51:02
Перевод: русский и украинский закадровый многоголосый
Cубтитры: (PGS): English, Arabic, Bulgarian, Croatian, Czech, Estonian, German, Greek, Hebrew, Icelandic, Latvian, Lithuanian, Polish, Portuguese, Romanian, Russian (Full-length), Russian (Forced), Slovenian, Spanish
Режиссер: Ричард Доннер
В ролях: Грегори Пек, Ли Ремик, Дэвид Уорнер, Билли Уайтлоу, Харви Стефенс, Патрик Тротон, Мартин Бенсон, Роберт Ритти
Описание: Он был рожден в 6 часов 6-го дня 6-го месяца. Как предсказано в Книге Откровений, настанет Конец света, последнее противостояние сил добра и зла, и началом его будет рождение сына Сатаны в облике человеческом..
У жены американского дипломата Роберта Торна рождается мертвый ребенок, и ее муж неспособный сообщить ей эту трагическую новость, усыновляет младенца с непонятным родимым пятном в виде трех шестерок — числа зверя. Подробности рождения ребенка остаются в секрете, но со временем становится ясно, что это необычный ребенок.
Вокруг постоянно, при загадочных обстоятельствах, умирают люди и происходят таинственные события, после которых Роберт Торн начинает панически бояться усыновленного мальчика, за невинным ангельским лицом которого прячется безжалостная дьявольская сущность...- -Видео: 1920x1080p / 23,976 fps / 16:9 / High Profile 4.1, H.264, ~ 21370 kbps
Видеокодек: MPEG-4 AVC/H.264
Аудио#1: : DTS-HD Master Audio 3245 kbps 5.1 / 48 kHz / 3245 kbps / 24-bit (DTS Core: 5.1 / 48 kHz / 1509 kbps / 24-bit)
Аудио#2: : DTS Audio 768 kbps 5.1 / 48 kHz / 768 kbps / 24-bit
Аудио#3: : DTS Audio 768 kbps 5.1 / 48 kHz / 768 kbps / 24-bit (MVO) [Russian]
Аудио#4: : Dolby Digital Audio 448 kbps 5.1 / 48 kHz / 448 kbps / DN -4dB
Аудио#5: : Dolby Digital Audio 224 kbps 2.0 / 48 kHz / 224 kbps / DN -4dB
Аудио#6: : Dolby Digital Audio 192 kbps 2.0 / 48 kHz / 192 kbps / DN -4dB
Аудио#7: : Dolby Digital Audio 192 kbps 2.0 / 48 kHz / 192 kbps / DN -4dB (MVO) [Ukrainian]
Аудио#8: : DTS Express 192 kbps 2.0 / 48 kHz / 192 kbps / 24-bit-

BDinfo

Disc Title: OMEN_I_BD_BLUEBIRD
Disc Size: 41 504 026 603 bytes
Protection: AACS
BD-Java: Yes
BDInfo: 0.5.6
PLAYLIST REPORT:
Name: 00001.MPLS
Length: 1:51:02 (h:m:s)
Size: 25 210 171 392 bytes
Total Bitrate: 30,27 Mbps
(*) Indicates included stream hidden by this playlist.
VIDEO:
Codec Bitrate Description
----- ------- -----------
MPEG-4 AVC Video 21370 kbps 1080p / 23,976 fps / 16:9 / High Profile 4.1
* MPEG-4 AVC Video 607 kbps 480p / 23,976 fps / 4:3 / High Profile 3.2
AUDIO:
Codec Language Bitrate Description
----- -------- ------- -----------
DTS-HD Master Audio English 3245 kbps 5.1 / 48 kHz / 3245 kbps / 24-bit (DTS Core: 5.1 / 48 kHz / 1509 kbps / 24-bit)
DTS Audio German 768 kbps 5.1 / 48 kHz / 768 kbps / 24-bit
DTS Audio Russian 768 kbps 5.1 / 48 kHz / 768 kbps / 24-bit
Dolby Digital Audio English 448 kbps 5.1 / 48 kHz / 448 kbps / DN -4dB
Dolby Digital Audio English 224 kbps 2.0 / 48 kHz / 224 kbps / DN -4dB
Dolby Digital Audio Polish 192 kbps 2.0 / 48 kHz / 192 kbps / DN -4dB
Dolby Digital Audio Ukrainian 192 kbps 2.0 / 48 kHz / 192 kbps / DN -4dB
* DTS Express English 192 kbps 2.0 / 48 kHz / 192 kbps / 24-bit
SUBTITLES:
Codec Language Bitrate Description
----- -------- ------- -----------
Presentation Graphics English 19,282 kbps
Presentation Graphics Arabic 9,611 kbps
Presentation Graphics Bulgarian 15,682 kbps
Presentation Graphics Croatian 14,964 kbps
Presentation Graphics Czech 18,863 kbps
Presentation Graphics Estonian 16,337 kbps
Presentation Graphics German 18,955 kbps
Presentation Graphics German 0,219 kbps
Presentation Graphics German 53,601 kbps
* Presentation Graphics German 21,164 kbps
Presentation Graphics Greek 20,878 kbps
Presentation Graphics Hebrew 12,130 kbps
Presentation Graphics Icelandic 19,777 kbps
Presentation Graphics Latvian 17,073 kbps
Presentation Graphics Lithuanian 17,087 kbps
Presentation Graphics Polish 18,788 kbps
Presentation Graphics Portuguese 17,366 kbps
Presentation Graphics Romanian 16,676 kbps
Presentation Graphics Russian 20,141 kbps
Presentation Graphics Russian 0,760 kbps
Presentation Graphics Russian 0,760 kbps
Presentation Graphics Russian 0,760 kbps
* Presentation Graphics Russian 0,008 kbps
Presentation Graphics Slovenian 15,554 kbps
Presentation Graphics Spanish 51,064 kbps
FILES:
Name Time In Length Size Total Bitrate
---- ------- ------ ---- -------------
00331.M2TS 0:00:00.000 1:51:02.614 25 210 171 392 30 271
CHAPTERS:
Number Time In Length Avg Video Rate Max 1-Sec Rate Max 1-Sec Time Max 5-Sec Rate Max 5-Sec Time Max 10Sec Rate Max 10Sec Time Avg Frame Size Max Frame Size Max Frame Time
------ ------- ------ -------------- -------------- -------------- -------------- -------------- -------------- -------------- -------------- -------------- --------------
1 0:00:00.000 0:01:24.501 27 202 kbps 33 897 kbps 00:01:23.041 32 127 kbps 00:01:19.120 31 781 kbps 00:01:14.115 141 746 bytes 255 885 bytes 00:00:52.052
2 0:01:24.501 0:03:38.217 19 996 kbps 33 014 kbps 00:01:29.923 31 553 kbps 00:01:27.879 31 275 kbps 00:01:24.918 104 250 bytes 274 660 bytes 00:01:30.715
3 0:05:02.719 0:00:36.494 20 353 kbps 27 238 kbps 00:05:22.071 23 575 kbps 00:05:19.986 22 713 kbps 00:05:18.109 106 110 bytes 194 195 bytes 00:05:22.739
4 0:05:39.213 0:01:24.167 22 997 kbps 27 463 kbps 00:06:15.166 26 649 kbps 00:06:13.414 25 377 kbps 00:06:09.577 119 896 bytes 208 869 bytes 00:06:30.598
5 0:07:03.381 0:03:46.851 23 150 kbps 32 826 kbps 00:10:41.057 31 329 kbps 00:10:37.053 29 677 kbps 00:10:32.423 120 696 bytes 280 503 bytes 00:10:41.307
6 0:10:50.232 0:01:40.767 15 054 kbps 17 402 kbps 00:12:11.397 16 896 kbps 00:12:08.018 16 320 kbps 00:12:04.849 78 486 bytes 181 850 bytes 00:10:52.652
7 0:12:31.000 0:03:13.109 16 422 kbps 32 060 kbps 00:13:26.847 30 918 kbps 00:13:23.177 26 779 kbps 00:13:23.219 85 615 bytes 254 320 bytes 00:13:21.217
8 0:15:44.109 0:04:32.480 26 738 kbps 32 811 kbps 00:19:09.648 31 986 kbps 00:19:11.108 31 801 kbps 00:16:47.339 139 402 bytes 277 533 bytes 00:16:25.776
9 0:20:16.590 0:03:44.432 20 278 kbps 29 063 kbps 00:23:54.724 28 466 kbps 00:23:53.473 26 843 kbps 00:22:46.490 105 721 bytes 233 599 bytes 00:24:01.022
10 0:24:01.022 0:03:16.404 25 372 kbps 32 201 kbps 00:25:07.172 31 047 kbps 00:25:05.212 30 553 kbps 00:25:00.207 132 280 bytes 242 271 bytes 00:24:58.496
11 0:27:17.427 0:01:53.696 21 482 kbps 24 270 kbps 00:28:44.514 23 166 kbps 00:27:34.319 22 736 kbps 00:27:33.193 111 996 bytes 197 037 bytes 00:29:11.124
12 0:29:11.124 0:01:55.865 27 209 kbps 32 727 kbps 00:29:41.529 31 962 kbps 00:29:37.233 31 767 kbps 00:29:32.479 141 853 bytes 230 930 bytes 00:30:20.777
13 0:31:06.990 0:03:36.049 24 426 kbps 31 981 kbps 00:33:39.851 29 147 kbps 00:33:37.807 28 748 kbps 00:32:14.015 127 345 bytes 254 335 bytes 00:33:40.101
14 0:34:43.039 0:01:37.639 19 371 kbps 22 343 kbps 00:35:25.665 21 178 kbps 00:35:21.369 20 776 kbps 00:35:16.739 100 992 bytes 187 315 bytes 00:35:27.083
15 0:36:20.678 0:02:34.279 18 270 kbps 24 985 kbps 00:36:28.895 23 334 kbps 00:36:42.617 22 901 kbps 00:36:21.554 95 253 bytes 191 369 bytes 00:38:54.957
16 0:38:54.957 0:02:47.041 20 049 kbps 22 501 kbps 00:41:12.178 21 840 kbps 00:41:23.147 21 447 kbps 00:41:19.602 104 527 bytes 203 265 bytes 00:41:37.119
17 0:41:41.999 0:03:06.936 21 631 kbps 35 137 kbps 00:42:21.664 31 898 kbps 00:42:17.743 28 141 kbps 00:42:12.780 112 772 bytes 255 716 bytes 00:44:29.333
18 0:44:48.936 0:03:11.566 19 694 kbps 23 357 kbps 00:45:44.074 22 105 kbps 00:45:43.532 21 629 kbps 00:47:19.962 102 677 bytes 184 906 bytes 00:45:45.701
19 0:48:00.502 0:01:26.669 21 815 kbps 25 621 kbps 00:48:33.910 24 844 kbps 00:48:24.776 24 576 kbps 00:48:09.636 113 731 bytes 202 003 bytes 00:49:27.172
20 0:49:27.172 0:07:11.097 21 925 kbps 34 835 kbps 00:51:59.366 31 204 kbps 00:51:50.524 30 847 kbps 00:51:50.398 114 307 bytes 263 775 bytes 00:52:00.075
21 0:56:38.269 0:05:43.718 20 001 kbps 31 535 kbps 00:57:42.709 26 294 kbps 00:58:52.737 26 095 kbps 00:58:49.192 104 278 bytes 319 492 bytes 00:57:43.126
22 1:02:21.988 0:01:31.508 23 149 kbps 28 609 kbps 01:03:33.518 26 491 kbps 01:03:48.491 25 497 kbps 01:03:33.226 120 691 bytes 223 850 bytes 01:02:25.992
23 1:03:53.496 0:02:59.888 23 173 kbps 27 913 kbps 01:04:06.467 27 090 kbps 01:04:02.255 26 604 kbps 01:04:02.255 120 813 bytes 210 398 bytes 01:04:15.810
24 1:06:53.384 0:01:33.635 24 406 kbps 31 052 kbps 01:07:43.726 27 971 kbps 01:07:02.018 27 794 kbps 01:07:01.017 127 239 bytes 225 958 bytes 01:07:04.395
25 1:08:27.019 0:05:38.004 18 309 kbps 32 328 kbps 01:08:31.315 30 920 kbps 01:08:27.645 27 680 kbps 01:08:54.255 95 453 bytes 291 147 bytes 01:08:59.051
26 1:14:05.023 0:08:16.454 20 656 kbps 29 314 kbps 01:20:38.041 27 594 kbps 01:20:51.179 27 169 kbps 01:20:52.347 107 689 bytes 292 302 bytes 01:20:38.708
27 1:22:21.478 0:03:39.385 21 765 kbps 28 861 kbps 01:24:28.229 27 410 kbps 01:24:28.146 25 642 kbps 01:24:26.770 113 474 bytes 202 662 bytes 01:25:51.062
28 1:26:00.864 0:02:11.256 17 401 kbps 28 893 kbps 01:28:11.119 20 727 kbps 01:28:07.115 19 070 kbps 01:28:02.110 90 723 bytes 305 854 bytes 01:28:12.120
29 1:28:12.120 0:04:35.441 21 776 kbps 32 884 kbps 01:28:38.062 31 979 kbps 01:28:27.844 31 887 kbps 01:28:28.886 113 530 bytes 319 906 bytes 01:28:14.122
30 1:32:47.562 0:02:19.722 24 578 kbps 32 753 kbps 01:34:01.469 31 924 kbps 01:34:17.818 31 864 kbps 01:34:12.855 128 136 bytes 252 887 bytes 01:33:24.640
31 1:35:07.284 0:06:03.196 19 100 kbps 32 772 kbps 01:35:19.547 28 807 kbps 01:35:16.877 27 001 kbps 01:35:16.877 99 578 bytes 229 619 bytes 01:35:19.922
32 1:41:10.481 0:02:43.746 20 736 kbps 27 778 kbps 01:43:36.501 24 456 kbps 01:43:44.593 24 216 kbps 01:43:44.218 108 109 bytes 247 000 bytes 01:42:18.340
33 1:43:54.228 0:01:44.729 23 096 kbps 33 453 kbps 01:44:56.581 29 813 kbps 01:44:44.236 26 890 kbps 01:44:44.236 120 412 bytes 247 423 bytes 01:44:39.731
34 1:45:38.957 0:01:04.689 21 032 kbps 32 125 kbps 01:46:37.599 31 830 kbps 01:46:37.599 31 269 kbps 01:46:33.637 109 651 bytes 239 721 bytes 01:46:34.137
35 1:46:43.647 0:02:15.885 24 645 kbps 33 432 kbps 01:46:43.980 31 736 kbps 01:47:59.848 31 682 kbps 01:47:59.931 128 486 bytes 298 910 bytes 01:47:12.342
36 1:48:59.533 0:02:03.081 19 080 kbps 33 349 kbps 01:50:00.343 31 711 kbps 01:49:50.917 31 608 kbps 01:49:51.334 99 507 bytes 296 061 bytes 01:50:00.594
-        -
Омен II: Дэмиен / Damien: Omen II Год выпуска: 1978
Продолжительность: 01:46:51
Перевод: русский и украинский закадровый многоголосый
Cубтитры: (PGS): English, Chinese, French, Korean, Russian (Full-length), Russian (Forced)
Режиссер: Дон Тейлор
В ролях: Уильям Холден, Ли Грант, Джонатан Скот-Тэйлор, Роберт Фоксуорт, Николас Прайор, Лью Эйрс, Сильвия Сидни, Лэнс Хенриксен, Элизабет Шеперд, Лукас Донат
Описание: Семь лет прошло с того дня, как Дэмиен чудом избежал смерти от руки своего отца. Теперь ему 13, и он живет вместе со своим дядей Ричардом Торном, тетей и двоюродным братом Марком. Пока юный Антихрист познает свою чудовищную силу и как ею пользоваться, за его безопасностью следят множество служителей Дьявола, жестоко уничтожая всех неугодных.
Его дядя постепенно понимает, что мальчик не так невинен как может показаться, и ему открывается чудовищная правда. Вооружившись семью древними кинжалами, Торн собирается очистить мир от самой страшной нечисти на земле, но многие пытались убить сына Сатаны, и теперь все они в могиле. Сможет ли это сделать Ричард Торн или присоединится к своим предшественникам в качестве трупа?...- -Видео: 1920x1080p / 23,976 fps / 16:9 / High Profile 4.1, H.264, ~ 35765 kbps
Видеокодек: MPEG-4 AVC/H.264
Аудио#1: : DTS-HD Master Audio 2719 kbps 5.1 / 48 kHz / 2719 kbps / 24-bit (DTS Core: 5.1 / 48 kHz / 1509 kbps / 24-bit)
Аудио#2: : DTS Audio 768 kbps 5.1 / 48 kHz / 768 kbps / 24-bit (MVO) [Russian]
Аудио#3: : Dolby Digital Audio 224 kbps 2.0 / 48 kHz / 224 kbps / DN -4dB
Аудио#4: : Dolby Digital Audio 224 kbps 2.0 / 48 kHz / 224 kbps / DN -4dB
Аудио#5: : Dolby Digital Audio 192 kbps 2.0 / 48 kHz / 192 kbps / DN -4dB (MVO) [Ukrainian]-

BDinfo

Disc Title: OMEN_II_BDBLUEBIRD
Disc Size: 35 965 954 905 bytes
Protection: AACS
BD-Java: Yes
BDInfo: 0.5.6
PLAYLIST REPORT:
Name: 00001.MPLS
Length: 1:46:51 (h:m:s)
Size: 33 890 052 096 bytes
Total Bitrate: 42,29 Mbps
VIDEO:
Codec Bitrate Description
----- ------- -----------
MPEG-4 AVC Video 35765 kbps 1080p / 23,976 fps / 16:9 / High Profile 4.1
AUDIO:
Codec Language Bitrate Description
----- -------- ------- -----------
DTS-HD Master Audio English 2719 kbps 5.1 / 48 kHz / 2719 kbps / 24-bit (DTS Core: 5.1 / 48 kHz / 1509 kbps / 24-bit)
DTS Audio Russian 768 kbps 5.1 / 48 kHz / 768 kbps / 24-bit
Dolby Digital Audio English 224 kbps 2.0 / 48 kHz / 224 kbps / DN -4dB
Dolby Digital Audio French 224 kbps 2.0 / 48 kHz / 224 kbps / DN -4dB
Dolby Digital Audio Ukrainian 192 kbps 2.0 / 48 kHz / 192 kbps / DN -4dB
SUBTITLES:
Codec Language Bitrate Description
----- -------- ------- -----------
Presentation Graphics English 50,223 kbps
Presentation Graphics Chinese 41,241 kbps
Presentation Graphics Chinese 58,876 kbps
Presentation Graphics French 0,936 kbps
Presentation Graphics Korean 32,880 kbps
Presentation Graphics Russian 28,227 kbps
Presentation Graphics Russian 0,351 kbps
FILES:
Name Time In Length Size Total Bitrate
---- ------- ------ ---- -------------
00013.M2TS 0:00:00.000 1:46:51.738 33 890 052 096 42 285
CHAPTERS:
Number Time In Length Avg Video Rate Max 1-Sec Rate Max 1-Sec Time Max 5-Sec Rate Max 5-Sec Time Max 10Sec Rate Max 10Sec Time Avg Frame Size Max Frame Size Max Frame Time
------ ------- ------ -------------- -------------- -------------- -------------- -------------- -------------- -------------- -------------- -------------- --------------
1 0:00:00.000 0:02:04.499 35 337 kbps 42 922 kbps 00:00:08.550 38 246 kbps 00:00:04.546 37 164 kbps 00:00:47.839 184 171 bytes 329 420 bytes 00:00:09.009
2 0:02:04.499 0:02:41.536 37 030 kbps 38 993 kbps 00:03:45.475 37 546 kbps 00:03:41.471 37 300 kbps 00:03:57.570 193 058 bytes 381 727 bytes 00:04:00.573
3 0:04:46.035 0:04:40.530 35 541 kbps 41 756 kbps 00:09:22.979 38 058 kbps 00:09:18.975 37 254 kbps 00:07:42.420 185 296 bytes 349 587 bytes 00:04:47.036
4 0:09:26.566 0:03:49.562 35 979 kbps 38 536 kbps 00:10:00.850 37 354 kbps 00:09:54.051 37 221 kbps 00:09:49.046 187 578 bytes 396 127 bytes 00:10:00.891
5 0:13:16.128 0:06:00.401 35 991 kbps 38 293 kbps 00:16:50.509 37 342 kbps 00:16:31.657 37 270 kbps 00:14:35.374 187 641 bytes 298 238 bytes 00:17:03.731
6 0:19:16.530 0:03:03.558 35 403 kbps 39 576 kbps 00:20:25.515 37 300 kbps 00:19:18.866 37 154 kbps 00:19:34.006 184 574 bytes 367 697 bytes 00:19:37.342
7 0:22:20.088 0:04:23.805 35 493 kbps 38 701 kbps 00:25:43.750 37 402 kbps 00:25:39.663 37 238 kbps 00:25:34.741 185 044 bytes 392 520 bytes 00:25:46.920
8 0:26:43.893 0:04:13.002 36 747 kbps 38 436 kbps 00:29:50.914 37 330 kbps 00:29:01.906 37 275 kbps 00:30:42.924 191 583 bytes 314 859 bytes 00:29:55.335
9 0:30:56.896 0:08:29.091 35 961 kbps 39 655 kbps 00:37:28.454 37 584 kbps 00:37:24.450 37 238 kbps 00:36:57.548 187 483 bytes 419 275 bytes 00:38:41.986
10 0:39:25.988 0:06:48.950 36 214 kbps 39 132 kbps 00:40:04.401 37 444 kbps 00:39:39.752 37 256 kbps 00:42:35.928 188 802 bytes 429 333 bytes 00:39:44.507
11 0:46:14.938 0:03:24.996 35 642 kbps 40 240 kbps 00:46:20.360 37 427 kbps 00:47:40.774 37 219 kbps 00:48:37.956 185 821 bytes 333 869 bytes 00:47:09.159
12 0:49:39.935 0:01:53.530 34 369 kbps 37 809 kbps 00:50:18.807 37 168 kbps 00:50:24.020 37 128 kbps 00:50:21.435 179 182 bytes 326 694 bytes 00:51:33.465
13 0:51:33.465 0:08:37.934 36 296 kbps 39 047 kbps 00:58:50.944 37 370 kbps 00:58:31.799 37 276 kbps 00:55:15.020 189 230 bytes 371 915 bytes 00:51:39.471
14 1:00:11.399 0:07:41.878 36 331 kbps 38 370 kbps 01:00:43.431 37 391 kbps 01:07:46.020 37 222 kbps 01:00:55.026 189 413 bytes 341 355 bytes 01:00:58.863
15 1:07:53.277 0:06:14.207 35 321 kbps 40 294 kbps 01:12:49.281 37 420 kbps 01:14:02.312 37 232 kbps 01:13:40.207 184 149 bytes 360 828 bytes 01:12:49.823
16 1:14:07.484 0:08:56.619 35 940 kbps 38 342 kbps 01:19:23.717 37 334 kbps 01:18:56.565 37 266 kbps 01:15:59.680 187 374 bytes 316 440 bytes 01:14:18.495
17 1:23:04.104 0:08:10.948 35 978 kbps 39 218 kbps 01:28:36.811 37 501 kbps 01:24:48.666 37 324 kbps 01:24:44.662 187 571 bytes 412 042 bytes 01:24:53.671
18 1:31:15.052 0:07:52.096 35 534 kbps 38 893 kbps 01:32:51.566 37 454 kbps 01:32:47.645 37 242 kbps 01:32:42.640 185 260 bytes 345 079 bytes 01:33:49.081
19 1:39:07.149 0:05:07.473 36 913 kbps 39 488 kbps 01:44:11.912 37 611 kbps 01:44:07.908 37 357 kbps 01:44:02.945 192 449 bytes 288 635 bytes 01:40:35.237
20 1:44:14.623 0:02:37.115 27 853 kbps 38 832 kbps 01:44:35.310 37 371 kbps 01:44:30.973 37 208 kbps 01:44:27.094 145 253 bytes 344 440 bytes 01:45:17.686
-Скриншоты:
       
-
Омен III: Последний конфликт / Omen III: The Final Conflict
Год выпуска: 1981
Продолжительность: 01:48:20
Перевод: русский и украинский закадровый многоголосый
Cубтитры: (PGS): English, Chinese, French, Korean, Russian (Full-length), Russian (Forced)
Режиссер: Грэхэм Бэйкер
В ролях: Сэм Нилл, Россано Брацци, Дон Гордон, Лиза Хэрроу, Барнеби Холм, Мэйсон Адамс, Роберт Арден, Марк Бойл
Описание: Дэмиену Торну теперь 32. Стремясь к власти над всем миром он предан только себе и своему родному отцу — Сатане. Чтобы достичь своей цели, он убивает всех на своем пути — будь то друг, враг, верный слуга или любовница.
Темным силам противостоит лишь поклявшийся уничтожить дьявольское отродье старый монах с семью святыми кинжалами, выкованными специально для этого дела. Но хватит ли у него сил для осуществления своего плана или умрет как все, и мир повергнется в пучину хаоса?...- -Видео: 1920x1080p / 23,976 fps / 16:9 / High Profile 4.1, H.264, ~ 35819 kbps
Видеокодек: MPEG-4 AVC/H.264
Аудио#1: : DTS-HD Master Audio 3065 kbps 5.1 / 48 kHz / 3065 kbps / 24-bit (DTS Core: 5.1 / 48 kHz / 1509 kbps / 24-bit)
Аудио#2: : DTS Audio 768 kbps 5.1 / 48 kHz / 768 kbps / 24-bit (MVO) [Russian]
Аудио#3: : Dolby Digital Audio 224 kbps 2.0 / 48 kHz / 224 kbps / DN -4dB / Dolby Surround
Аудио#4: : Dolby Digital Audio 224 kbps 2.0 / 48 kHz / 224 kbps / DN -4dB
Аудио#5: : Dolby Digital Audio 192 kbps 2.0 / 48 kHz / 192 kbps / DN -4dB (MVO) [Ukrainian]-

BDinfo

Disc Title: OMEN_III_BD_BLUEBIRD
Disc Size: 36 323 505 489 bytes
Protection: AACS
BD-Java: Yes
BDInfo: 0.5.6
PLAYLIST REPORT:
Name: 00001.MPLS
Length: 1:48:20 (h:m:s)
Size: 34 684 661 760 bytes
Total Bitrate: 42,69 Mbps
VIDEO:
Codec Bitrate Description
----- ------- -----------
MPEG-4 AVC Video 35819 kbps 1080p / 23,976 fps / 16:9 / High Profile 4.1
AUDIO:
Codec Language Bitrate Description
----- -------- ------- -----------
DTS-HD Master Audio English 3065 kbps 5.1 / 48 kHz / 3065 kbps / 24-bit (DTS Core: 5.1 / 48 kHz / 1509 kbps / 24-bit)
DTS Audio Russian 768 kbps 5.1 / 48 kHz / 768 kbps / 24-bit
Dolby Digital Audio English 224 kbps 2.0 / 48 kHz / 224 kbps / DN -4dB / Dolby Surround
Dolby Digital Audio English 224 kbps 2.0 / 48 kHz / 224 kbps / DN -4dB
Dolby Digital Audio Ukrainian 192 kbps 2.0 / 48 kHz / 192 kbps / DN -4dB
SUBTITLES:
Codec Language Bitrate Description
----- -------- ------- -----------
Presentation Graphics English 47,472 kbps
Presentation Graphics Chinese 42,826 kbps
Presentation Graphics Chinese 44,323 kbps
Presentation Graphics French 0,557 kbps
Presentation Graphics Korean 36,652 kbps
Presentation Graphics Russian 29,704 kbps
Presentation Graphics Russian 0,664 kbps
FILES:
Name Time In Length Size Total Bitrate
---- ------- ------ ---- -------------
00013.M2TS 0:00:00.000 1:48:20.035 34 684 661 760 42 689
CHAPTERS:
Number Time In Length Avg Video Rate Max 1-Sec Rate Max 1-Sec Time Max 5-Sec Rate Max 5-Sec Time Max 10Sec Rate Max 10Sec Time Avg Frame Size Max Frame Size Max Frame Time
------ ------- ------ -------------- -------------- -------------- -------------- -------------- -------------- -------------- -------------- -------------- --------------
1 0:00:00.000 0:04:09.832 34 515 kbps 43 115 kbps 00:00:12.512 38 228 kbps 00:00:08.508 37 341 kbps 00:02:39.576 179 916 bytes 351 946 bytes 00:02:32.277
2 0:04:09.832 0:04:18.091 36 784 kbps 39 956 kbps 00:05:01.801 37 537 kbps 00:04:57.714 37 252 kbps 00:07:44.338 191 777 bytes 325 624 bytes 00:08:27.924
3 0:08:27.924 0:05:12.895 34 365 kbps 39 384 kbps 00:12:09.770 37 491 kbps 00:08:42.396 37 300 kbps 00:08:42.146 179 164 bytes 369 942 bytes 00:09:26.774
4 0:13:40.819 0:03:48.269 36 921 kbps 38 821 kbps 00:13:59.171 37 426 kbps 00:15:09.909 37 292 kbps 00:15:04.904 192 491 bytes 318 263 bytes 00:13:41.820
5 0:17:29.089 0:02:06.501 36 433 kbps 40 671 kbps 00:18:23.435 37 872 kbps 00:18:19.473 37 439 kbps 00:19:25.372 189 945 bytes 312 086 bytes 00:18:23.977
6 0:19:35.591 0:03:09.522 33 943 kbps 37 720 kbps 00:22:20.964 37 202 kbps 00:22:16.960 37 188 kbps 00:22:11.955 176 963 bytes 293 052 bytes 00:22:45.113
7 0:22:45.113 0:05:55.146 36 538 kbps 39 421 kbps 00:26:55.780 37 601 kbps 00:26:51.776 37 391 kbps 00:26:46.771 190 493 bytes 402 561 bytes 00:26:23.123
8 0:28:40.260 0:09:14.512 36 703 kbps 40 271 kbps 00:30:47.554 37 711 kbps 00:33:48.651 37 304 kbps 00:32:10.887 191 352 bytes 327 972 bytes 00:30:48.346
9 0:37:54.772 0:03:41.763 34 387 kbps 37 516 kbps 00:40:59.457 36 692 kbps 00:40:56.120 36 372 kbps 00:40:05.111 179 279 bytes 248 693 bytes 00:40:32.930
10 0:41:36.535 0:05:59.901 36 058 kbps 39 272 kbps 00:47:32.724 37 591 kbps 00:47:28.720 37 384 kbps 00:47:23.715 187 990 bytes 290 686 bytes 00:42:30.631
11 0:47:36.436 0:06:17.293 35 890 kbps 39 984 kbps 00:51:30.128 37 365 kbps 00:49:11.323 37 273 kbps 00:49:06.318 187 115 bytes 342 383 bytes 00:53:53.730
12 0:53:53.730 0:08:39.352 36 312 kbps 40 922 kbps 01:02:12.270 37 844 kbps 00:58:38.139 37 332 kbps 00:55:42.339 189 316 bytes 446 548 bytes 00:58:43.645
13 1:02:33.082 0:05:55.897 36 344 kbps 38 350 kbps 01:06:22.186 37 419 kbps 01:07:27.001 37 258 kbps 01:07:32.923 189 482 bytes 364 703 bytes 01:07:31.922
14 1:08:28.979 0:10:06.314 34 888 kbps 38 710 kbps 01:08:56.215 37 449 kbps 01:08:52.128 37 267 kbps 01:08:47.289 181 892 bytes 382 137 bytes 01:08:59.802
15 1:18:35.293 0:05:35.126 36 438 kbps 42 069 kbps 01:23:06.356 38 197 kbps 01:23:02.435 37 650 kbps 01:22:57.347 189 971 bytes 399 088 bytes 01:23:07.148
16 1:24:10.420 0:08:09.113 35 536 kbps 42 430 kbps 01:25:54.482 37 828 kbps 01:25:50.478 37 215 kbps 01:24:29.647 185 268 bytes 409 658 bytes 01:26:01.114
17 1:32:19.534 0:04:36.943 37 029 kbps 39 876 kbps 01:35:57.543 37 404 kbps 01:33:01.659 37 258 kbps 01:32:48.229 193 054 bytes 321 765 bytes 01:35:57.877
18 1:36:56.477 0:04:58.881 36 531 kbps 38 208 kbps 01:41:45.265 37 333 kbps 01:39:37.638 37 240 kbps 01:38:42.041 190 454 bytes 281 454 bytes 01:37:05.486
19 1:41:55.359 0:04:16.172 34 508 kbps 38 974 kbps 01:43:17.774 37 490 kbps 01:42:19.591 37 342 kbps 01:42:14.586 179 911 bytes 317 927 bytes 01:45:58.769
20 1:46:11.531 0:02:08.503 34 710 kbps 48 162 kbps 01:48:11.943 39 366 kbps 01:48:07.939 38 055 kbps 01:48:02.934 181 021 bytes 549 165 bytes 01:48:12.652
-Скриншоты:
       
Other forum [Profile] [PM]

Dracula

Longevity: 6 years 1 month

Posts: 10673

Торрент-статистика

Post 09-Aug-2011 22:08 (after 2 minutes)

Топик был перенесен из форума Классика зарубежного кино в форум Зарубежное кино (HD Video)

kogesan
 
Display posts from previous:    
Reply to topic

The time now is: Today 10:35

All times are GMT + 3 Hours



You cannot post new topics in this forum
You cannot reply to topics in this forum
You cannot edit your posts in this forum
You cannot delete your posts in this forum
You cannot vote in polls in this forum
You cannot attach files in this forum
You cannot download files in this forum