Today is a free download without charge Download

Таксист / Taxi Driver (Мартин Скорсезе / Martin Scorsese) [1976, США, триллер, драма, криминал, BDRip 720p] [Mastered in 4K] DVO (CEE/R5, ОРТ) + MVO (Киномания, ОРТ) + AVO (Михалёв, Поздняков, Живов, Либергал) + Ukr + Original (Eng) + Sub (Rus, Eng)

Reply to topic
 
Author
Message

Omen ®

Longevity: 8 years 5 months

Posts: 181087

Торрент-статистика

Post 02-Jun-2013 08:13

[Quote]

Таксист / Taxi Driver
«Он – одинокий, забытый человек, отчаянно пытающийся доказать что он - ВЫЖИВЕТ»
Выпущено: США, Columbia Pictures Corporation
Жанр: триллер, драма, криминал
Год выпуска: 1976
Продолжительность: 01:53:48-Перевод: Профессиональный (двухголосый)
Cубтитры: русские, английские-Режиссер: Мартин Скорсезе
В ролях: Роберт Де Ниро, Джоди Фостер, Питер Бойл, Сибилл Шепард, Харви Кейтель, Альберт Брукс, Дайэнн Эбботт, Фрэнк Эду, Виктор Арго, Джино Ардито-О фильме: Тусклый свет слепых фонарей, скелеты фабричных труб, задыхающихся в собственном дыму. Вавилонские башни небоскребов, все это — ад Нового времени, Нью-Йорк. Ветеран вьетнамской войны Трэйвис Бикл ведет свое одинокое такси по ночным улицам бесконечного города, и перед ним разворачивается мрачная панорама человеческих грехов. Как ветхозаветный пророк, он надеется, что однажды небеса пошлют на землю спасительный дождь, который очистит Нью-Йорк от вековой грязи. А когда умирает надежда, остается только ненависть. Огненный ливень обрушится на головы грешников. Таксист позаботится об этом.- -Формат: MKV (x264)
Качество: BDRip 720p [CRiSC]
Видео: 15000 kb/s, 1280x692, 23.976 fps, 1.85:1
Аудио #1: AC3, 640 kb/s, 6 ch, 48 КГц, 16 бит [Проф. двухголосый, CEE/R5]
Аудио #2: AC3, 448 kb/s, 6 ch, 48 КГц, 16 бит [Проф. многоголосый, Киномания]
Аудио #3: AC3, 192 kb/s, 2 ch, 48 КГц, 16 бит [Проф. многоголосый, НТВ+]
Аудио #4: AC3, 192 kb/s, 2 ch, 48 КГц, 16 бит [Проф. двухголосый, ОРТ]
Аудио #5: AC3, 192 kb/s, 2 ch, 48 КГц, 16 бит [Автор. одноголосый, А. Михалёв]
Аудио #6: AC3, 192 kb/s, 2 ch, 48 КГц, 16 бит [Автор. одноголосый, К. Поздняков]
Аудио #7: AC3, 640 kb/s, 6 ch, 48 КГц, 16 бит [Автор. одноголосый, Ю. Живов]
Аудио #8: AC3, 640 kb/s, 6 ch, 48 КГц, 16 бит [Автор. одноголосый, Г. Либергал]
Аудио #9: AC3, 448 kb/s, 6 ch, 48 КГц, 16 бит [Проф. многоголосый, Так Треба Продакшн - украинский]
Аудио #10: AC3, 640 kb/s, 6 ch, 48 КГц, 16 бит [Оригинал]
Аудио #11: AAC, 64 kb/s, 2 ch, 48/24 КГц, 16 бит [Commentary Director Martin Scorsese and writer Paul Schrader]
Аудио #12: AAC, 64 kb/s, 2 ch, 48/24 КГц, 16 бит [Commentary Paul Schrader]
Аудио #13: AAC, 64 kb/s, 2 ch, 48/24 КГц, 16 бит [Commentary Professor Robert Kolker]

Знаете ли вы, что...

Съемочный период: июнь-сентябрь 1975.
Сибилл Шепард случайно получила роль Бетси. Продюсеры искали актрису, которую описывали как типажно похожую на Сибилл. Агент актрисы Сью Менгерс узнала об этом и спросила продюсеров, почему бы им ни пригласить саму Шепард.
Фильм собирался снимать Брайан Де Палма.
От главной роли отказался Аль Пачино.
В сценарии Пола Шредера несколько отрицательных героев были черными. Скорсезе посчитал, что это могут воспринять как проявление расизма, и потребовал сделать этих персонажей белыми. Шредер согласился.
Роль Трэвиса Бикла предлагали Джеффу Бриджесу.
На роль сенатора Чарлза Палантина приглашали Рока Хадсона, но актер в тот момент был занят на сериале «МакМиллан и жена».
Харви Кейтел вначале получил роль рабочего Тома. Но затем эту роль отдали Альберту Бруксу, а Кейтел сам выбрал сутенера Спота Мэттью, хотя по сценарию его герой произносит не больше пяти реплик.
Специально для роли Кейтел познакомился с настоящими сутенерами. Он также сымпровизировал сцену танца с Джоди Фостер. Танец — одна из двух сцен, где внимание камеры не сосредоточено на Трэвисе.
В течение месяца Де Ниро по двенадцать часов сидел за рулем, чтобы научиться водить такси. Также он специально для роли изучал различные умственные болезни.
Сцена, где Трэвис беседует со своим отражением в зеркале, целиком сымпровизирована Де Ниро. В сценарии просто сказано «Трэвис смотрится в зеркало».
Бернард Херрманн не хотел писать музыку к фильму, но увидев сцену, где Трэвис поливает хлеб шнапсом, согласился.
Херрман скончался через несколько часов после того, как была записана последняя часть музыкальной партитуры фильма.
Из-за своего возраста (13 лет на момент съемок) Джоди Фостер не могла принимать участие в некоторых наиболее откровенных сценах. Ее дублировала старшая сестра Конни Фостер.
Актер Джордж Меммоли должен был сыграть одного из пассажиров Трэвиса, однако на съемках другого фильма, «Фермер» (1975), с ним случился несчастный случай, и Меммоли пришлось подменить самому Мартину Скорсезе.

Награды и номинации

Специальный приз «Давид» Донателло» в Италии за игру Джоди Фостер, «Голубая лента» в Японии за лучшую иностранную картину и премия «Кинема дзюнпо» иностранному режиссёру, включён в 1994 году в Национальный регистр фильмов.Оскар, 1977 год Номинации (4):
Лучший фильм
Лучшая мужская роль (Роберт Де Ниро)
Лучшая женская роль второго плана (Джоди Фостер)
Лучший оригинальный саундтрек-Золотой глобус, 1977 год Номинации (2):
Лучшая мужская роль (драма) (Роберт Де Ниро)
Лучший сценарий-Британская академия, 1977 год Победитель (1):
Премия имени Энтони Эскуита за достижения в создании музыки к фильму
Номинации (4):
Лучший фильм
Лучшая мужская роль (Роберт Де Ниро)
Лучший режиссер (Мартин Скорсезе)
Лучший монтаж-Каннский кинофестиваль, 1976 год Победитель (1):
Золотая пальмовая ветвь

Скриншоты

MediaInfo

Код:
Формат                                   : Matroska
Версия формата                           : Version 4 / Version 2
Размер файла                             : 15,4 Гбайт
Продолжительность                        : 1 ч. 53 м.
Общий поток                              : 19,4 Мбит/сек
Дата кодирования                         : UTC 2013-06-02 00:15:59
Программа кодирования                    : mkvmerge v6.1.0 ('Old Devil') built on Mar  2 2013 14:32:37
Библиотека кодирования                   : libebml v1.3.0 + libmatroska v1.4.0
Видео
Идентификатор                            : 1
Формат                                   : AVC
Формат/Информация                        : Advanced Video Codec
Профиль формата                          : [email protected]
Параметр CABAC формата                   : Да
Параметр ReFrames формата                : 9 кадров
Идентификатор кодека                     : V_MPEG4/ISO/AVC
Продолжительность                        : 1 ч. 53 м.
Номинальный битрейт                      : 15,0 Мбит/сек
Ширина                                   : 1280 пикселей
Высота                                   : 692 пикселя
Соотношение сторон                       : 1,85:1
Режим частоты кадров                     : Постоянный
Частота кадров                           : 23,976 кадра/сек
Цветовое пространство                    : YUV
Субдискретизация насыщенности            : 4:2:0
Битовая глубина                          : 8 бит
Тип развёртки                            : Прогрессивная
Бит/(Пиксели*Кадры)                      : 0.706
Библиотека кодирования                   : x264 core 133 r2334kMod a3ac64b
Настройки программы                      : cabac=1 / ref=9 / deblock=1:-3:-3 / analyse=0x3:0x133 / me=tesa / subme=11 / psy=1 / fade_compensate=0.00 / psy_rd=1.00:0.00 / mixed_ref=1 / me_range=24 / chroma_me=1 / trellis=2 / 8x8dct=1 / cqm=0 / deadzone=21,11 / fast_pskip=0 / chroma_qp_offset=-2 / threads=12 / lookahead_threads=3 / sliced_threads=0 / nr=0 / decimate=0 / interlaced=0 / bluray_compat=0 / constrained_intra=0 / bframes=13 / b_pyramid=2 / b_adapt=2 / b_bias=0 / direct=3 / weightb=1 / open_gop=0 / weightp=2 / keyint=250 / keyint_min=23 / scenecut=40 / intra_refresh=0 / rc_lookahead=40 / rc=2pass / mbtree=0 / bitrate=15000 / ratetol=1.0 / qcomp=0.65 / qpmin=0 / qpmax=69 / qpstep=4 / cplxblur=20.0 / qblur=0.5 / vbv_maxrate=50000 / vbv_bufsize=62500 / nal_hrd=none / ip_ratio=1.30 / pb_ratio=1.20 / aq=1:0.50
Default                                  : Нет
Forced                                   : Нет
Основные цвета                           : BT.709
Характеристики трансфера                 : BT.709
Коэффициенты матрицы                     : BT.709
Аудио #1
Идентификатор                            : 2
Формат                                   : AC-3
Формат/Информация                        : Audio Coding 3
Расширение режима                        : CM (complete main)
Параметр Endianness формата              : Big
Идентификатор кодека                     : A_AC3
Продолжительность                        : 1 ч. 53 м.
Вид битрейта                             : Постоянный
Битрейт                                  : 640 Кбит/сек
Каналы                                   : 6 каналов
Расположение каналов                     : Front: L C R, Side: L R, LFE
Частота                                  : 48,0 КГц
Битовая глубина                          : 16 бит
Метод сжатия                             : С потерями
Размер потока                            : 521 Мбайт (3%)
Заголовок                                : DVO, CEE
Язык                                     : Russian
Default                                  : Да
Forced                                   : Нет
Аудио #2
Идентификатор                            : 3
Формат                                   : AC-3
Формат/Информация                        : Audio Coding 3
Расширение режима                        : CM (complete main)
Параметр Endianness формата              : Big
Идентификатор кодека                     : A_AC3
Продолжительность                        : 1 ч. 53 м.
Вид битрейта                             : Постоянный
Битрейт                                  : 448 Кбит/сек
Каналы                                   : 6 каналов
Расположение каналов                     : Front: L C R, Side: L R, LFE
Частота                                  : 48,0 КГц
Битовая глубина                          : 16 бит
Метод сжатия                             : С потерями
Размер потока                            : 365 Мбайт (2%)
Заголовок                                : MVO, Kinomania
Язык                                     : Russian
Default                                  : Нет
Forced                                   : Нет
Аудио #3
Идентификатор                            : 4
Формат                                   : AC-3
Формат/Информация                        : Audio Coding 3
Расширение режима                        : CM (complete main)
Параметр Endianness формата              : Big
Идентификатор кодека                     : A_AC3
Продолжительность                        : 1 ч. 53 м.
Вид битрейта                             : Постоянный
Битрейт                                  : 192 Кбит/сек
Каналы                                   : 2 канала
Расположение каналов                     : Front: L R
Частота                                  : 48,0 КГц
Битовая глубина                          : 16 бит
Метод сжатия                             : С потерями
Размер потока                            : 156 Мбайт (1%)
Заголовок                                : MVO, NTV+
Язык                                     : Russian
Default                                  : Нет
Forced                                   : Нет
Аудио #4
Идентификатор                            : 5
Формат                                   : AC-3
Формат/Информация                        : Audio Coding 3
Расширение режима                        : CM (complete main)
Параметр Endianness формата              : Big
Идентификатор кодека                     : A_AC3
Продолжительность                        : 1 ч. 53 м.
Вид битрейта                             : Постоянный
Битрейт                                  : 192 Кбит/сек
Каналы                                   : 2 канала
Расположение каналов                     : Front: L R
Частота                                  : 48,0 КГц
Битовая глубина                          : 16 бит
Метод сжатия                             : С потерями
Размер потока                            : 156 Мбайт (1%)
Заголовок                                : DVO, ORT
Язык                                     : Russian
Default                                  : Нет
Forced                                   : Нет
Аудио #5
Идентификатор                            : 6
Формат                                   : AC-3
Формат/Информация                        : Audio Coding 3
Расширение режима                        : CM (complete main)
Параметр Endianness формата              : Big
Идентификатор кодека                     : A_AC3
Продолжительность                        : 1 ч. 53 м.
Вид битрейта                             : Постоянный
Битрейт                                  : 192 Кбит/сек
Каналы                                   : 2 канала
Расположение каналов                     : Front: L R
Частота                                  : 48,0 КГц
Битовая глубина                          : 16 бит
Метод сжатия                             : С потерями
Размер потока                            : 156 Мбайт (1%)
Заголовок                                : AVO, Mihalev
Язык                                     : Russian
Default                                  : Нет
Forced                                   : Нет
Аудио #6
Идентификатор                            : 7
Формат                                   : AC-3
Формат/Информация                        : Audio Coding 3
Расширение режима                        : CM (complete main)
Параметр Endianness формата              : Big
Идентификатор кодека                     : A_AC3
Продолжительность                        : 1 ч. 53 м.
Вид битрейта                             : Постоянный
Битрейт                                  : 192 Кбит/сек
Каналы                                   : 2 канала
Расположение каналов                     : Front: L R
Частота                                  : 48,0 КГц
Битовая глубина                          : 16 бит
Метод сжатия                             : С потерями
Размер потока                            : 156 Мбайт (1%)
Заголовок                                : AVO, Pozdnyakov
Язык                                     : Russian
Default                                  : Нет
Forced                                   : Нет
Аудио #7
Идентификатор                            : 8
Формат                                   : AC-3
Формат/Информация                        : Audio Coding 3
Расширение режима                        : CM (complete main)
Параметр Endianness формата              : Big
Идентификатор кодека                     : A_AC3
Продолжительность                        : 1 ч. 53 м.
Вид битрейта                             : Постоянный
Битрейт                                  : 640 Кбит/сек
Каналы                                   : 6 каналов
Расположение каналов                     : Front: L C R, Side: L R, LFE
Частота                                  : 48,0 КГц
Битовая глубина                          : 16 бит
Метод сжатия                             : С потерями
Размер потока                            : 521 Мбайт (3%)
Заголовок                                : AVO, Jivov
Язык                                     : Russian
Default                                  : Нет
Forced                                   : Нет
Аудио #8
Идентификатор                            : 9
Формат                                   : AC-3
Формат/Информация                        : Audio Coding 3
Расширение режима                        : CM (complete main)
Параметр Endianness формата              : Big
Идентификатор кодека                     : A_AC3
Продолжительность                        : 1 ч. 53 м.
Вид битрейта                             : Постоянный
Битрейт                                  : 640 Кбит/сек
Каналы                                   : 6 каналов
Расположение каналов                     : Front: L C R, Side: L R, LFE
Частота                                  : 48,0 КГц
Битовая глубина                          : 16 бит
Метод сжатия                             : С потерями
Размер потока                            : 521 Мбайт (3%)
Заголовок                                : AVO, Libergal
Язык                                     : Russian
Default                                  : Нет
Forced                                   : Нет
Аудио #9
Идентификатор                            : 10
Формат                                   : AC-3
Формат/Информация                        : Audio Coding 3
Расширение режима                        : CM (complete main)
Параметр Endianness формата              : Big
Идентификатор кодека                     : A_AC3
Продолжительность                        : 1 ч. 53 м.
Вид битрейта                             : Постоянный
Битрейт                                  : 448 Кбит/сек
Каналы                                   : 6 каналов
Расположение каналов                     : Front: L C R, Side: L R, LFE
Частота                                  : 48,0 КГц
Битовая глубина                          : 16 бит
Метод сжатия                             : С потерями
Размер потока                            : 365 Мбайт (2%)
Заголовок                                : MVO, TTP
Язык                                     : Ukrainian
Default                                  : Нет
Forced                                   : Нет
Аудио #10
Идентификатор                            : 11
Формат                                   : AC-3
Формат/Информация                        : Audio Coding 3
Расширение режима                        : CM (complete main)
Параметр Endianness формата              : Big
Идентификатор кодека                     : A_AC3
Продолжительность                        : 1 ч. 53 м.
Вид битрейта                             : Постоянный
Битрейт                                  : 640 Кбит/сек
Каналы                                   : 6 каналов
Расположение каналов                     : Front: L C R, Side: L R, LFE
Частота                                  : 48,0 КГц
Битовая глубина                          : 16 бит
Метод сжатия                             : С потерями
Размер потока                            : 521 Мбайт (3%)
Язык                                     : English
Default                                  : Нет
Forced                                   : Нет
Аудио #11
Идентификатор                            : 12
Формат                                   : AAC
Формат/Информация                        : Advanced Audio Codec
Профиль формата                          : HE-AAC / LC
Идентификатор кодека                     : A_AAC
Продолжительность                        : 1 ч. 53 м.
Каналы                                   : 2 канала
Расположение каналов                     : Front: L R
Частота                                  : 48,0 КГц / 24,0 КГц
Метод сжатия                             : С потерями
Заголовок                                : Commentary Director Martin Scorsese and writer Paul Schrader
Язык                                     : English
Default                                  : Нет
Forced                                   : Нет
Аудио #12
Идентификатор                            : 13
Формат                                   : AAC
Формат/Информация                        : Advanced Audio Codec
Профиль формата                          : HE-AAC / LC
Идентификатор кодека                     : A_AAC
Продолжительность                        : 1 ч. 53 м.
Каналы                                   : 2 канала
Расположение каналов                     : Front: L R
Частота                                  : 48,0 КГц / 24,0 КГц
Метод сжатия                             : С потерями
Заголовок                                : Commentary Paul Schrader
Язык                                     : English
Default                                  : Нет
Forced                                   : Нет
Аудио #13
Идентификатор                            : 14
Формат                                   : AAC
Формат/Информация                        : Advanced Audio Codec
Профиль формата                          : HE-AAC / LC
Идентификатор кодека                     : A_AAC
Продолжительность                        : 1 ч. 53 м.
Каналы                                   : 2 канала
Расположение каналов                     : Front: L R
Частота                                  : 48,0 КГц / 24,0 КГц
Метод сжатия                             : С потерями
Заголовок                                : Commentary Professor Robert Kolker
Язык                                     : English
Default                                  : Нет
Forced                                   : Нет
Текст #1
Идентификатор                            : 15
Формат                                   : UTF-8
Идентификатор кодека                     : S_TEXT/UTF8
Идентификатор кодека/Информация          : UTF-8 Plain Text
Язык                                     : Russian
Default                                  : Да
Forced                                   : Нет
Текст #2
Идентификатор                            : 16
Формат                                   : UTF-8
Идентификатор кодека                     : S_TEXT/UTF8
Идентификатор кодека/Информация          : UTF-8 Plain Text
Язык                                     : English
Default                                  : Нет
Forced                                   : Нет
Меню
00:00:00.000                             : en:00:00:00.000
00:10:59.033                             : en:00:10:59.033
00:20:05.037                             : en:00:20:05.037
00:28:21.033                             : en:00:28:21.033
00:33:12.199                             : en:00:33:12.199
00:40:11.576                             : en:00:40:11.576
00:44:03.641                             : en:00:44:03.641
00:51:42.141                             : en:00:51:42.141
01:01:10.542                             : en:01:01:10.542
01:08:11.796                             : en:01:08:11.796
01:14:49.026                             : en:01:14:49.026
01:24:46.039                             : en:01:24:46.039
01:29:42.752                             : en:01:29:42.752
01:34:11.980                             : en:01:34:11.980
01:38:02.418                             : en:01:38:02.418
01:45:57.893                             : en:01:45:57.893
Other forum [Profile] [PM]
Display posts from previous:    
Reply to topic

The time now is: Today 09:49

All times are GMT + 3 Hours



You cannot post new topics in this forum
You cannot reply to topics in this forum
You cannot edit your posts in this forum
You cannot delete your posts in this forum
You cannot vote in polls in this forum
You cannot attach files in this forum
You cannot download files in this forum