Today is a free download without charge Download

Наследие Вальдемара 2: Там, где обитают тени / La herencia Valdemar II: La sombra prohibida (Хосе Луис Алеман) [2010 г., ужасы, детектив, DVDRip]

Reply to topic
 
Author
Message

sassad ®

Gender:

Longevity: 8 years 1 month

Posts: 1216

Location: Галич

Торрент-статистика

Post 09-Aug-2011 20:30

[Quote]

Наследие Вальдемара 2: Там, где обитают тени / La herencia Valdemar II: La sombra prohibida--
Год выпуска: 2010
Страна: Испания
Жанр: ужасы, детектив
Продолжительность: 92 мин.
Перевод: Любительский (одноголосый)
Режиссер: Хосе Луис Алеман
Продюссер: Хосе Луис Алеман, Мигель Анхель Гонзалез, Иниго Марко
Сценарий: Хосе Луис Алеман-Премьера в мире: 7 октября 2010
4.80 (112)

В ролях: Сильвия Абаскал, Оскар Хаенада, Даниэле Лиотти, Лайя Марулл, Хасинто Молина, Хесус Ольмедо, Эусебио Понсела, Santi Prego, Ana Risueño, Мария Альфонса Россо-Описание: Вторая часть мистического детектива «Наследие Вальдемара», из которой мы наконец узнаем, что случилось с Луизой Лиоренте, какая судьба постигла Лазаро Вальдемара, а также станем свидетелями еще одного магического ритуала и встретимся с кхтулху.-Качество: DVDRip
Формат: AVI
Видео кодек: XviD
Аудио кодек: MP3
Видео: 720x384 (1.88:1), 25 fps, XviD MPEG-4 ~1709 kbps avg, 0.25 bit/pixel
Аудио: Русский:44.100 kHz, MPEG Layer 3, 2 ch, ~224 kbps avg
Испанский: 48 kHz, AC3 Dolby Digital, 2/0 (L,R) ch, ~224 kbps [Оригинал]

MediaInfo

General
Complete name : E:\Загрузки\Valdemar.2.2010.DVDRip.avi
Format : AVI
Format/Info : Audio Video Interleave
File size : 1.37 GiB
Duration : 1h 30mn
Overall bit rate : 2 171 Kbps
Writing application : VirtualDubMod 1.5.10.3 | (build 2550/release)
Writing library : VirtualDubMod build 2550/release
Video
ID : 0
Format : MPEG-4 Visual
Format profile : Advanced [email protected]
Format settings, BVOP : No
Format settings, QPel : No
Format settings, GMC : No warppoints
Format settings, Matrix : Custom
Codec ID : XVID
Codec ID/Hint : XviD
Duration : 1h 30mn
Bit rate : 1 709 Kbps
Width : 720 pixels
Height : 384 pixels
Display aspect ratio : 1.875
Frame rate : 25.000 fps
Color space : YUV
Chroma subsampling : 4:2:0
Bit depth : 8 bits
Scan type : Progressive
Compression mode : Lossy
Bits/(Pixel*Frame) : 0.247
Stream size : 1.08 GiB (79%)
Writing library : XviD 58
Audio #1
ID : 1
Format : MPEG Audio
Format version : Version 1
Format profile : Layer 3
Mode : Joint stereo
Codec ID : 55
Codec ID/Hint : MP3
Duration : 1h 30mn
Bit rate mode : Constant
Bit rate : 224 Kbps
Channel(s) : 2 channels
Sampling rate : 44.1 KHz
Compression mode : Lossy
Stream size : 145 MiB (10%)
Alignment : Split accross interleaves
Interleave, duration : 40 ms (1.00 video frame)
Interleave, preload duration : 500 ms
Language : Spanish
Audio #2
ID : 2
Format : AC-3
Format/Info : Audio Coding 3
Mode extension : CM (complete main)
Codec ID : 2000
Duration : 1h 30mn
Bit rate mode : Constant
Bit rate : 224 Kbps
Channel(s) : 2 channels
Channel positions : Front: L R
Sampling rate : 48.0 KHz
Bit depth : 16 bits
Compression mode : Lossy
Stream size : 145 MiB (10%)
Alignment : Split accross interleaves
Interleave, duration : 40 ms (1.00 video frame)
Interleave, preload duration : 500 ms

Скриншоты

    
-

_________________


Last edited by sassad on 2011-09-03 15:07; edited 2 times in total
Other forum [Profile] [PM]
Display posts from previous:    
Reply to topic

The time now is: Today 18:20

All times are GMT + 3 Hours



You cannot post new topics in this forum
You cannot reply to topics in this forum
You cannot edit your posts in this forum
You cannot delete your posts in this forum
You cannot vote in polls in this forum
You cannot attach files in this forum
You cannot download files in this forum