Today is a free download without charge Download

Тепло наших тел / Warm Bodies ( Джонатан Левин ) (2013, Ужасы, Мелодрама, Комедия ) BDRip [720p] [EN / EN Sub]

Reply to topic
 
Author
Message

Витек1 ®

Gender:

Longevity: 8 years 3 months

Posts: 451

Location: Житомир

Торрент-статистика

Post 01-Jun-2013 19:47

[Quote]

Тепло наших тел / Warm Bodies - Русское название: Тепло наших тел
Оригинальное название: Warm Bodies
Год выпуска: 2013
Жанр: Ужасы, Мелодрама, Комедия
Описание фильма:
Мир поражен чумой и стоит на грани вымирания. Покойники ходят по земле и норовят употребить в пищу живых, которые, оставшись в катастрофическом меньшинстве, с трудом держат оборону. Перемены начинаются, когда один зомби, чье имя при жизни начиналось на «Р», спасает девушку вместо того, чтобы ее съесть. Дружба, завязавшаяся между представителями враждующих сторон, грозит обоим самыми нехорошими последствиями. Но Р и Джули, сами того не подозревая, держат в руках простой и единственный ключ к спасению гибнущего мира.
Режиссер: Джонатан Левин
Актеры: Николас Холт, Тереза Палмер, Аналей Типтон, Роб Кордри, Дэйв Франко, Джон Малкович, Кори Хардрикт, Дэниэл Риндресс-Кей, Винсент Леклерк, Клиффорд ЛеДюк-Вайанкур
Продолжительность: 01:37:45
Перевод: Отсутствует
Язык: Английский
Язык субтитров: Английскиe
Вид субтитров: Вшитые, отключаемые

Видеокодек: MPEG-4 AVC/H.264
Битрейт видео: ~4 887 Kbps
Размер кадра: 1280x536
Качество видео: BDRip
Аудиокодек: DTS : 6 channels
Битрейт аудио: 1 510 Kbps
Сэмпл: Ссылка

Screenlist

 

MediaInfo

Warm Bodies.720p.mkv
Format : Matroska
Format version : Version 2
File size : 4.37 GiB
Duration : 1h 37mn
Overall bit rate : 6 395 Kbps
Writing application : mkvmerge v4.1.1 ('Bouncin' Back') built on Jul 3 2010 22:54:08
Writing library : libebml v1.0.0 + libmatroska v1.0
Video
ID : 1
Format : AVC
Format/Info : Advanced Video Codec
Format profile : [url=mailto:[email protected]][email protected][/url]
Format settings, CABAC : Yes
Format settings, ReFrames : 5 frames
Codec ID : V_MPEG4/ISO/AVC
Duration : 1h 37mn
Bit rate : 4 887 Kbps
Width : 1 280 pixels
Height : 536 pixels
Display aspect ratio : 2.40:1
Frame rate : 23.976 fps
Color space : YUV
Chroma subsampling : 4:2:0
Bit depth : 8 bits
Scan type : Progressive
Bits/(Pixel*Frame) : 0.297
Stream size : 3.25 GiB (74%)
Writing library : x264 core 133 r2334 a3ac64b
Encoding settings : cabac=1 / ref=5 / deblock=1:0:0 / analyse=0x3:0x133 / me=umh / subme=7 / psy=1 / psy_rd=1.00:0.00 / mixed_ref=1 / me_range=16 / chroma_me=1 / trellis=1 / 8x8dct=1 / cqm=0 / deadzone=21,11 / fast_pskip=0 / chroma_qp_offset=-2 / threads=18 / lookahead_threads=3 / sliced_threads=0 / nr=0 / decimate=1 / interlaced=0 / bluray_compat=0 / constrained_intra=0 / bframes=3 / b_pyramid=2 / b_adapt=1 / b_bias=0 / direct=1 / weightb=1 / open_gop=0 / weightp=2 / keyint=250 / keyint_min=23 / scenecut=40 / intra_refresh=0 / rc_lookahead=40 / rc=2pass / mbtree=1 / bitrate=4887 / ratetol=1.0 / qcomp=0.60 / qpmin=0 / qpmax=69 / qpstep=4 / cplxblur=20.0 / qblur=0.5 / ip_ratio=1.40 / aq=1:1.00
Language : English
Default : Yes
Forced : No
Audio
ID : 2
Format : DTS
Format/Info : Digital Theater Systems
Codec ID : A_DTS
Duration : 1h 37mn
Bit rate mode : Constant
Bit rate : 1 510 Kbps
Channel(s) : 6 channels
Channel positions : Front: L C R, Side: L R, LFE
Sampling rate : 48.0 KHz
Bit depth : 24 bits
Compression mode : Lossy
Stream size : 1.03 GiB (24%)
Title : DTS
Language : English
Default : Yes
Forced : No
Text #1
ID : 3
Format : UTF-8
Codec ID : S_TEXT/UTF8
Codec ID/Info : UTF-8 Plain Text
Title : English
Language : English
Default : No
Forced : No
Text #2
ID : 4
Format : UTF-8
Codec ID : S_TEXT/UTF8
Codec ID/Info : UTF-8 Plain Text
Title : English SDH
Language : English
Default : No
Forced : No
Menu
00:00:00.000 : en:00:00:00.000
00:06:39.858 : en:00:06:39.858
00:12:24.202 : en:00:12:24.202
00:19:24.580 : en:00:19:24.580
00:24:22.920 : en:00:24:22.920
00:31:17.626 : en:00:31:17.626
00:40:52.408 : en:00:40:52.408
00:45:32.563 : en:00:45:32.563
00:49:56.285 : en:00:49:56.285
00:55:44.091 : en:00:55:44.091
01:02:25.492 : en:01:02:25.492
01:08:49.876 : en:01:08:49.876
01:14:08.861 : en:01:14:08.861
01:17:27.393 : en:01:17:27.393
01:24:00.702 : en:01:24:00.702
01:30:30.759 : en:01:30:30.759
Скриншоты:
       

_________________
Скачал сам, дай скачать другому!!!Не забудь сказать -
Other forum [Profile] [PM]

Dracula

Longevity: 7 years 5 months

Posts: 11215

Торрент-статистика

Post 02-Jan-2014 15:52 (after 7 months)

Топик был перенесен из форума Новинки (DVD, HD Video) в форум Зарубежное кино (HD Video)


kogesan
 
Display posts from previous:    
Reply to topic

The time now is: Today 08:44

All times are GMT + 3 Hours



You cannot post new topics in this forum
You cannot reply to topics in this forum
You cannot edit your posts in this forum
You cannot delete your posts in this forum
You cannot vote in polls in this forum
You cannot attach files in this forum
You cannot download files in this forum