Today is a free download without charge Download

Лучшие клипы / The best videos of all time (Rock'n'roll) H.264 (2012) DVDRip

Reply to topic
 
Author
Message

Omen ®

Longevity: 8 years 6 months

Posts: 181087

Торрент-статистика

Post 01-Jun-2013 19:42

[Quote]

Лучшие клипы / The best videos of all time (Rock'n'roll)-
Русское название: Лучшие клипы
Оригинальное название: The best videos of all time (Rock'n'roll) H.264
Год выпуска: 2012
Жанр: Музыка, Rock, Rock'n'roll
Описание фильма:

Лучшие клипы, лучшие исполнители для вашего внимания!
(Последний диск из этой серии...)
Треклист:
01. Little Richard - Lucille
02. Bill Haley And His Comets - Vive La Rock 'N' Roll
03. AC DC - That's the Way I Wanna Rock N' Roll
04. Britney Spears - I Love Rock 'N' Roll
05. Shakin' Stevens - Oh Julie
06. Stray Cats - Stray cat strut
07. Alex Gaudino & Jason Rooney - I Love Rock' N' Roll
08. Chubby Checker - Let's twist again
09. The Beatles - Twist and Shout
10. Club Des Belugas - Habana Twist
11. CN Blue - Loner + Rock & Roll Music
12. Dancing at Jack Rabbit Slim's - Pulp Fiction
13. Elvis Presley - Suspicious Minds
14. Foo Fighters - Rock and Roll Feat Led Zeppelin
15. Jerry Lee Lewis - WHad I Say , Whole Lot Of Shakin' Got On

Продолжение:

16. Little Richard - Good Golly, Miss Molly & Tutti Frutti
17. James Brown - Living in America (Rocky IV)
18. Jennel Garcia - I Love Rock N Roll
19. Johnny Winter - Good Morning Little Schoolgirl
20. Motorhead - Rock 'n' Roll
21. Helen Schneider - Rock'n Roll Gypsy
22. Elvis Presley - Teddy Bear
23. The Beatles - Rock And Roll Music
Продолжительность: 01:19:45
Видеокодек: MPEG-4 AVC/H.264
Битрейт видео: ~2632 Кбит/с
Размер кадра: 1280x720,1200x720
Качество видео: DVDRip
Аудиокодек: AAC, 2ch
Битрейт аудио: 152 Кбит/с

MI:

Общее
Полное имя : D:\Archyv\Clips\The best videos of all time (Rock'n'roll)\01. Little Richard - Lucille.mp4
Формат : MPEG-4
Профиль формата : Base Media / Version 2
Идентификатор кодека : mp42
Размер файла : 73,6 Мбайт
Продолжительность : 3 м. 54 с.
Режим общего битрейта : Переменный
Общий поток : 2632 Кбит/сек
Дата кодирования : UTC 2011-09-17 11:37:58
Дата пометки : UTC 2011-09-17 11:37:58
gsst : 0
gstd : 234560
gssd : BADC23AA1MH1358789447590256
gshh : r1---sn-n8v7lnee.c.youtube.com
Видео
Идентификатор : 1
Формат : AVC
Формат/Информация : Advanced Video Codec
Профиль формата : [url=mailto:[email protected]][email protected][/url]
Параметр CABAC формата : Да
Параметр ReFrames формата : 1 кадр
Параметр GOP формата : M=1, N=30
Идентификатор кодека : avc1
Идентификатор кодека/Информация : Advanced Video Coding
Продолжительность : 3 м. 54 с.
Битрейт : 2476 Кбит/сек
Максимальный битрейт : 3295 Кбит/сек
Ширина : 1280 пикселей
Высота : 720 пикселей
Соотношение сторон : 16:9
Режим частоты кадров : Постоянный
Частота кадров : 25,000 кадров/сек
Цветовое пространство : YUV
Субдискретизация насыщенности : 4:2:0
Битовая глубина : 8 бит
Тип развёртки : Прогрессивная
Бит/(Пиксели*Кадры) : 0.107
Размер потока : 69,2 Мбайт (94%)
Дата пометки : UTC 2011-09-17 11:38:00
Аудио
Идентификатор : 2
Формат : AAC
Формат/Информация : Advanced Audio Codec
Профиль формата : LC
Идентификатор кодека : 40
Продолжительность : 3 м. 54 с.
Вид битрейта : Переменный
Битрейт : 152 Кбит/сек
Максимальный битрейт : 174 Кбит/сек
Каналы : 2 канала
Расположение каналов : Front: L R
Частота : 44,1 КГц
Метод сжатия : С потерями
Размер потока : 4,24 Мбайт (6%)
Заголовок : IsoMedia File Produced by Google, 5-11-2011
Дата кодирования : UTC 2011-09-17 11:37:59
Дата пометки : UTC 2011-09-17 11:38:00
Общее
Полное имя : D:\Archyv\Clips\The best videos of all time (Rock'n'roll)\02. Bill Haley And His Comets - Vive La Rock 'N' Roll.mp4
Формат : MPEG-4
Профиль формата : Base Media / Version 2
Идентификатор кодека : mp42
Размер файла : 60,5 Мбайт
Продолжительность : 2 м. 51 с.
Режим общего битрейта : Переменный
Общий поток : 2960 Кбит/сек
Дата кодирования : UTC 2012-10-04 15:12:51
Дата пометки : UTC 2012-10-04 15:12:51
gsst : 0
gstd : 171665
gssd : BADC23AE5MH1358787083114576
gshh : r5---sn-n8v7lnes.c.youtube.com
Видео
Идентификатор : 1
Формат : AVC
Формат/Информация : Advanced Video Codec
Профиль формата : [url=mailto:[email protected]][email protected][/url]
Параметр CABAC формата : Да
Параметр ReFrames формата : 1 кадр
Идентификатор кодека : avc1
Идентификатор кодека/Информация : Advanced Video Coding
Продолжительность : 2 м. 51 с.
Битрейт : 2765 Кбит/сек
Максимальный битрейт : 4151 Кбит/сек
Ширина : 1280 пикселей
Высота : 720 пикселей
Соотношение сторон : 16:9
Режим частоты кадров : Постоянный
Частота кадров : 29,970 кадров/сек
Цветовое пространство : YUV
Субдискретизация насыщенности : 4:2:0
Битовая глубина : 8 бит
Тип развёртки : Прогрессивная
Бит/(Пиксели*Кадры) : 0.100
Размер потока : 56,5 Мбайт (93%)
Дата пометки : UTC 2012-10-04 15:12:51
Аудио
Идентификатор : 2
Формат : AAC
Формат/Информация : Advanced Audio Codec
Профиль формата : LC
Идентификатор кодека : 40
Продолжительность : 2 м. 51 с.
Вид битрейта : Переменный
Битрейт : 192 Кбит/сек
Максимальный битрейт : 202 Кбит/сек
Каналы : 2 канала
Расположение каналов : Front: L R
Частота : 44,1 КГц
Метод сжатия : С потерями
Размер потока : 3,93 Мбайт (6%)
Заголовок : IsoMedia File Produced by Google, 5-11-2011
Дата кодирования : UTC 2012-10-04 15:12:51
Дата пометки : UTC 2012-10-04 15:12:51
Общее
Полное имя : D:\Archyv\Clips\The best videos of all time (Rock'n'roll)\03. AC DC - That's the Way I Wanna Rock N' Roll.mp4
Формат : MPEG-4
Профиль формата : Base Media / Version 2
Идентификатор кодека : mp42
Размер файла : 59,0 Мбайт
Продолжительность : 3 м. 50 с.
Режим общего битрейта : Переменный
Общий поток : 2150 Кбит/сек
Дата кодирования : UTC 2009-09-11 11:51:13
Дата пометки : UTC 2009-09-11 11:51:13
gsst : 0
gstd : 230573
gssd : BADC23A87HH1358787896685347
gshh : r7---sn-n8v7lne7.c.youtube.com
Видео
Идентификатор : 2
Формат : AVC
Формат/Информация : Advanced Video Codec
Профиль формата : [url=mailto:[email protected]][email protected][/url]
Параметр CABAC формата : Да
Параметр ReFrames формата : 3 кадра
Идентификатор кодека : avc1
Идентификатор кодека/Информация : Advanced Video Coding
Продолжительность : 3 м. 50 с.
Битрейт : 2021 Кбит/сек
Максимальный битрейт : 3124 Кбит/сек
Ширина : 1280 пикселей
Высота : 720 пикселей
Соотношение сторон : 16:9
Режим частоты кадров : Постоянный
Частота кадров : 29,970 кадров/сек
Цветовое пространство : YUV
Субдискретизация насыщенности : 4:2:0
Битовая глубина : 8 бит
Тип развёртки : Прогрессивная
Бит/(Пиксели*Кадры) : 0.073
Размер потока : 55,4 Мбайт (94%)
Заголовок : (C) 2007 Google Inc. v08.13.2007.
Дата кодирования : UTC 2009-09-11 11:51:13
Дата пометки : UTC 2009-09-11 11:51:14
Аудио
Идентификатор : 1
Формат : AAC
Формат/Информация : Advanced Audio Codec
Профиль формата : LC
Идентификатор кодека : 40
Продолжительность : 3 м. 50 с.
Вид битрейта : Переменный
Битрейт : 126 Кбит/сек
Максимальный битрейт : 178 Кбит/сек
Каналы : 2 канала
Расположение каналов : Front: L R
Частота : 44,1 КГц
Метод сжатия : С потерями
Размер потока : 3,45 Мбайт (6%)
Заголовок : (C) 2007 Google Inc. v08.13.2007.
Дата кодирования : UTC 2009-09-11 11:51:13
Дата пометки : UTC 2009-09-11 11:51:14
Общее
Полное имя : D:\Archyv\Clips\The best videos of all time (Rock'n'roll)\04. Britney Spears - I Love Rock 'N' Roll.mp4
Формат : MPEG-4
Профиль формата : Base Media / Version 2
Идентификатор кодека : mp42
Размер файла : 64,2 Мбайт
Продолжительность : 3 м. 7 с.
Режим общего битрейта : Переменный
Общий поток : 2876 Кбит/сек
Дата кодирования : UTC 2012-07-01 23:03:30
Дата пометки : UTC 2012-07-01 23:03:30
gsst : 0
gstd : 187338
gssd : BADC23AA3MH1358784736341119
gshh : r3---sn-n8v7lnee.c.youtube.com
Видео
Идентификатор : 1
Формат : AVC
Формат/Информация : Advanced Video Codec
Профиль формата : [url=mailto:[email protected]][email protected][/url]
Параметр CABAC формата : Да
Параметр ReFrames формата : 1 кадр
Идентификатор кодека : avc1
Идентификатор кодека/Информация : Advanced Video Coding
Продолжительность : 3 м. 7 с.
Битрейт : 2723 Кбит/сек
Максимальный битрейт : 5966 Кбит/сек
Ширина : 1280 пикселей
Высота : 720 пикселей
Соотношение сторон : 16:9
Режим частоты кадров : Постоянный
Частота кадров : 24,000 кадра/сек
Цветовое пространство : YUV
Субдискретизация насыщенности : 4:2:0
Битовая глубина : 8 бит
Тип развёртки : Прогрессивная
Бит/(Пиксели*Кадры) : 0.123
Размер потока : 60,8 Мбайт (95%)
Дата пометки : UTC 2012-07-01 23:03:30
Аудио
Идентификатор : 2
Формат : AAC
Формат/Информация : Advanced Audio Codec
Профиль формата : LC
Идентификатор кодека : 40
Продолжительность : 3 м. 7 с.
Вид битрейта : Переменный
Битрейт : 151 Кбит/сек
Максимальный битрейт : 184 Кбит/сек
Каналы : 2 канала
Расположение каналов : Front: L R
Частота : 44,1 КГц
Метод сжатия : С потерями
Размер потока : 3,37 Мбайт (5%)
Заголовок : IsoMedia File Produced by Google, 5-11-2011
Дата кодирования : UTC 2012-07-01 23:03:30
Дата пометки : UTC 2012-07-01 23:03:30
Общее
Полное имя : D:\Archyv\Clips\The best videos of all time (Rock'n'roll)\05. Shakin' Stevens - Oh Julie.mp4
Формат : MPEG-4
Профиль формата : Base Media / Version 2
Идентификатор кодека : mp42
Размер файла : 44,2 Мбайт
Продолжительность : 2 м. 34 с.
Режим общего битрейта : Переменный
Общий поток : 2397 Кбит/сек
Дата кодирования : UTC 2009-01-11 01:44:48
Дата пометки : UTC 2009-01-11 01:44:48
gsst : 0
gstd : 155108
gssd : B4A7DDA47MH1358787819675052
gshh : r7---sn-4g57kues.c.youtube.com
Видео
Идентификатор : 2
Формат : AVC
Формат/Информация : Advanced Video Codec
Профиль формата : [url=mailto:[email protected]][email protected][/url]
Параметр CABAC формата : Да
Параметр ReFrames формата : 3 кадра
Идентификатор кодека : avc1
Идентификатор кодека/Информация : Advanced Video Coding
Продолжительность : 2 м. 34 с.
Битрейт : 2267 Кбит/сек
Максимальный битрейт : 7199 Кбит/сек
Ширина : 1280 пикселей
Высота : 720 пикселей
Соотношение сторон : 16:9
Режим частоты кадров : Постоянный
Частота кадров : 25,000 кадров/сек
Цветовое пространство : YUV
Субдискретизация насыщенности : 4:2:0
Битовая глубина : 8 бит
Тип развёртки : Прогрессивная
Бит/(Пиксели*Кадры) : 0.098
Размер потока : 41,8 Мбайт (95%)
Заголовок : (C) 2007 Google Inc. v08.13.2007.
Дата кодирования : UTC 2009-01-11 01:44:48
Дата пометки : UTC 2009-01-11 01:44:49
Аудио
Идентификатор : 1
Формат : AAC
Формат/Информация : Advanced Audio Codec
Профиль формата : LC
Идентификатор кодека : 40
Продолжительность : 2 м. 34 с.
Вид битрейта : Переменный
Битрейт : 126 Кбит/сек
Максимальный битрейт : 143 Кбит/сек
Каналы : 2 канала
Расположение каналов : Front: L R
Частота : 44,1 КГц
Метод сжатия : С потерями
Размер потока : 2,34 Мбайт (5%)
Заголовок : (C) 2007 Google Inc. v08.13.2007.
Дата кодирования : UTC 2009-01-11 01:44:48
Дата пометки : UTC 2009-01-11 01:44:49
Общее
Полное имя : D:\Archyv\Clips\The best videos of all time (Rock'n'roll)\06. Stray Cats - Stray cat strut.mp4
Формат : MPEG-4
Профиль формата : Base Media / Version 2
Идентификатор кодека : mp42
Размер файла : 72,4 Мбайт
Продолжительность : 3 м. 18 с.
Режим общего битрейта : Переменный
Общий поток : 3062 Кбит/сек
Дата кодирования : UTC 2012-06-01 13:40:08
Дата пометки : UTC 2012-06-01 13:40:08
gsst : 0
gstd : 198320
gssd : BADC23AAAMM1358791353225204
gshh : r10---sn-n8v7lnee.c.youtube.com
Видео
Идентификатор : 1
Формат : AVC
Формат/Информация : Advanced Video Codec
Профиль формата : [url=mailto:[email protected]][email protected][/url]
Параметр CABAC формата : Да
Параметр ReFrames формата : 1 кадр
Параметр GOP формата : M=1, N=30
Идентификатор кодека : avc1
Идентификатор кодека/Информация : Advanced Video Coding
Продолжительность : 3 м. 18 с.
Битрейт : 2907 Кбит/сек
Максимальный битрейт : 4377 Кбит/сек
Ширина : 1280 пикселей
Высота : 720 пикселей
Соотношение сторон : 16:9
Режим частоты кадров : Постоянный
Частота кадров : 29,970 кадров/сек
Цветовое пространство : YUV
Субдискретизация насыщенности : 4:2:0
Битовая глубина : 8 бит
Тип развёртки : Прогрессивная
Бит/(Пиксели*Кадры) : 0.105
Размер потока : 68,7 Мбайт (95%)
Дата пометки : UTC 2012-06-01 13:40:08
Аудио
Идентификатор : 2
Формат : AAC
Формат/Информация : Advanced Audio Codec
Профиль формата : LC
Идентификатор кодека : 40
Продолжительность : 3 м. 18 с.
Вид битрейта : Переменный
Битрейт : 152 Кбит/сек
Максимальный битрейт : 178 Кбит/сек
Каналы : 2 канала
Расположение каналов : Front: L R
Частота : 44,1 КГц
Метод сжатия : С потерями
Размер потока : 3,59 Мбайт (5%)
Заголовок : IsoMedia File Produced by Google, 5-11-2011
Дата кодирования : UTC 2012-06-01 13:40:08
Дата пометки : UTC 2012-06-01 13:40:08
Общее
Полное имя : D:\Archyv\Clips\The best videos of all time (Rock'n'roll)\07. Alex Gaudino & Jason Rooney - I Love Rock' N' Roll.mp4
Формат : MPEG-4
Профиль формата : Base Media / Version 2
Идентификатор кодека : mp42
Размер файла : 65,4 Мбайт
Продолжительность : 3 м. 16 с.
Режим общего битрейта : Переменный
Общий поток : 2785 Кбит/сек
Дата кодирования : UTC 2011-07-12 16:57:19
Дата пометки : UTC 2011-07-12 16:57:19
gsst : 0
gstd : 196845
gssd : BADC23AC3MH1358791713365183
gshh : r3---sn-n8v7lnel.c.youtube.com
Видео
Идентификатор : 1
Формат : AVC
Формат/Информация : Advanced Video Codec
Профиль формата : [url=mailto:[email protected]][email protected][/url]
Параметр CABAC формата : Да
Параметр ReFrames формата : 1 кадр
Параметр GOP формата : M=1, N=30
Идентификатор кодека : avc1
Идентификатор кодека/Информация : Advanced Video Coding
Продолжительность : 3 м. 16 с.
Битрейт : 2628 Кбит/сек
Максимальный битрейт : 3988 Кбит/сек
Ширина : 1280 пикселей
Высота : 720 пикселей
Соотношение сторон : 16:9
Режим частоты кадров : Переменный
Частота кадров : 30,000 кадров/сек
Минимальная частота кадров : 29,412 кадров/сек
Максимальная частота кадров : 55,556 кадров/сек
Цветовое пространство : YUV
Субдискретизация насыщенности : 4:2:0
Битовая глубина : 8 бит
Тип развёртки : Прогрессивная
Бит/(Пиксели*Кадры) : 0.095
Размер потока : 61,7 Мбайт (94%)
Дата пометки : UTC 2011-07-12 16:57:20
Аудио
Идентификатор : 2
Формат : AAC
Формат/Информация : Advanced Audio Codec
Профиль формата : LC
Идентификатор кодека : 40
Продолжительность : 3 м. 16 с.
Вид битрейта : Переменный
Битрейт : 151 Кбит/сек
Максимальный битрейт : 173 Кбит/сек
Каналы : 2 канала
Расположение каналов : Front: L R
Частота : 44,1 КГц
Метод сжатия : С потерями
Размер потока : 3,54 Мбайт (5%)
Заголовок : IsoMedia File Produced by Google, 5-11-2011
Дата кодирования : UTC 2011-07-12 16:57:20
Дата пометки : UTC 2011-07-12 16:57:20
Общее
Полное имя : D:\Archyv\Clips\The best videos of all time (Rock'n'roll)\08. Chubby Checker - Let's twist again.mp4
Формат : MPEG-4
Профиль формата : Base Media / Version 2
Идентификатор кодека : mp42
Размер файла : 28,1 Мбайт
Продолжительность : 2 м. 28 с.
Режим общего битрейта : Переменный
Общий поток : 1592 Кбит/сек
Дата кодирования : UTC 2011-12-08 23:49:59
Дата пометки : UTC 2011-12-08 23:49:59
gsst : 0
gstd : 148165
gssd : BADC23AE1MH1358837136657295
gshh : r1---sn-n8v7lnes.c.youtube.com
Видео
Идентификатор : 1
Формат : AVC
Формат/Информация : Advanced Video Codec
Профиль формата : [url=mailto:[email protected]][email protected][/url]
Параметр CABAC формата : Да
Параметр ReFrames формата : 1 кадр
Идентификатор кодека : avc1
Идентификатор кодека/Информация : Advanced Video Coding
Продолжительность : 2 м. 28 с.
Битрейт : 1444 Кбит/сек
Максимальный битрейт : 3530 Кбит/сек
Ширина : 1280 пикселей
Высота : 720 пикселей
Соотношение сторон : 16:9
Режим частоты кадров : Постоянный
Частота кадров : 29,970 кадров/сек
Цветовое пространство : YUV
Субдискретизация насыщенности : 4:2:0
Битовая глубина : 8 бит
Тип развёртки : Прогрессивная
Бит/(Пиксели*Кадры) : 0.052
Размер потока : 25,5 Мбайт (91%)
Дата пометки : UTC 2011-12-08 23:50:00
Аудио
Идентификатор : 2
Формат : AAC
Формат/Информация : Advanced Audio Codec
Профиль формата : LC
Идентификатор кодека : 40
Продолжительность : 2 м. 28 с.
Вид битрейта : Переменный
Битрейт : 144 Кбит/сек
Максимальный битрейт : 200 Кбит/сек
Каналы : 2 канала
Расположение каналов : Front: L R
Частота : 44,1 КГц
Метод сжатия : С потерями
Размер потока : 2,57 Мбайт (9%)
Заголовок : IsoMedia File Produced by Google, 5-11-2011
Дата кодирования : UTC 2011-12-08 23:49:59
Дата пометки : UTC 2011-12-08 23:50:00
Общее
Полное имя : D:\Archyv\Clips\The best videos of all time (Rock'n'roll)\09. The Beatles - Twist and Shout.mp4
Формат : MPEG-4
Профиль формата : Base Media / Version 2
Идентификатор кодека : mp42
Размер файла : 38,5 Мбайт
Продолжительность : 2 м. 32 с.
Режим общего битрейта : Переменный
Общий поток : 2125 Кбит/сек
Дата кодирования : UTC 2009-10-23 20:07:03
Дата пометки : UTC 2009-10-23 20:07:03
gsst : 0
gstd : 152670
gssd : B4A7D6E2AHH1358837240409137
gshh : r10---sn-n8v7lne6.c.youtube.com
Видео
Идентификатор : 2
Формат : AVC
Формат/Информация : Advanced Video Codec
Профиль формата : [url=mailto:[email protected]][email protected][/url]
Параметр CABAC формата : Да
Параметр ReFrames формата : 3 кадра
Идентификатор кодека : avc1
Идентификатор кодека/Информация : Advanced Video Coding
Продолжительность : 2 м. 32 с.
Битрейт : 1997 Кбит/сек
Максимальный битрейт : 3137 Кбит/сек
Ширина : 1280 пикселей
Высота : 720 пикселей
Соотношение сторон : 16:9
Режим частоты кадров : Постоянный
Частота кадров : 25,000 кадров/сек
Цветовое пространство : YUV
Субдискретизация насыщенности : 4:2:0
Битовая глубина : 8 бит
Тип развёртки : Прогрессивная
Бит/(Пиксели*Кадры) : 0.087
Размер потока : 36,2 Мбайт (94%)
Заголовок : (C) 2007 Google Inc. v08.13.2007.
Дата кодирования : UTC 2009-10-23 20:07:03
Дата пометки : UTC 2009-10-23 20:07:03
Аудио
Идентификатор : 1
Формат : AAC
Формат/Информация : Advanced Audio Codec
Профиль формата : LC
Идентификатор кодека : 40
Продолжительность : 2 м. 32 с.
Вид битрейта : Переменный
Битрейт : 125 Кбит/сек
Максимальный битрейт : 143 Кбит/сек
Каналы : 2 канала
Расположение каналов : Front: L R
Частота : 44,1 КГц
Метод сжатия : С потерями
Размер потока : 2,28 Мбайт (6%)
Заголовок : (C) 2007 Google Inc. v08.13.2007.
Дата кодирования : UTC 2009-10-23 20:07:03
Дата пометки : UTC 2009-10-23 20:07:03
Общее
Полное имя : D:\Archyv\Clips\The best videos of all time (Rock'n'roll)\10. Club Des Belugas - Habana Twist.mp4
Формат : MPEG-4
Профиль формата : Base Media / Version 2
Идентификатор кодека : mp42
Размер файла : 60,7 Мбайт
Продолжительность : 3 м. 58 с.
Режим общего битрейта : Переменный
Общий поток : 2130 Кбит/сек
Дата кодирования : UTC 2012-05-16 18:45:53
Дата пометки : UTC 2012-05-16 18:45:53
gsst : 0
gstd : 239048
gssd : B4A7D6E29MH1358837541636548
gshh : r9---sn-n8v7lne6.c.youtube.com
Видео
Идентификатор : 1
Формат : AVC
Формат/Информация : Advanced Video Codec
Профиль формата : [url=mailto:[email protected]][email protected][/url]
Параметр CABAC формата : Да
Параметр ReFrames формата : 1 кадр
Идентификатор кодека : avc1
Идентификатор кодека/Информация : Advanced Video Coding
Продолжительность : 3 м. 58 с.
Битрейт : 1976 Кбит/сек
Максимальный битрейт : 4815 Кбит/сек
Ширина : 1280 пикселей
Высота : 720 пикселей
Соотношение сторон : 16:9
Режим частоты кадров : Постоянный
Частота кадров : 25,000 кадров/сек
Цветовое пространство : YUV
Субдискретизация насыщенности : 4:2:0
Битовая глубина : 8 бит
Тип развёртки : Прогрессивная
Бит/(Пиксели*Кадры) : 0.086
Размер потока : 56,3 Мбайт (93%)
Дата пометки : UTC 2012-05-16 18:45:53
Аудио
Идентификатор : 2
Формат : AAC
Формат/Информация : Advanced Audio Codec
Профиль формата : LC
Идентификатор кодека : 40
Продолжительность : 3 м. 58 с.
Вид битрейта : Переменный
Битрейт : 151 Кбит/сек
Максимальный битрейт : 184 Кбит/сек
Каналы : 2 канала
Расположение каналов : Front: L R
Частота : 44,1 КГц
Метод сжатия : С потерями
Размер потока : 4,31 Мбайт (7%)
Заголовок : IsoMedia File Produced by Google, 5-11-2011
Дата кодирования : UTC 2012-05-16 18:45:53
Дата пометки : UTC 2012-05-16 18:45:53
Общее
Полное имя : D:\Archyv\Clips\The best videos of all time (Rock'n'roll)\11. CN Blue - Loner + Rock & Roll Music.mp4
Формат : MPEG-4
Профиль формата : Base Media / Version 2
Идентификатор кодека : mp42
Размер файла : 81,7 Мбайт
Продолжительность : 5 м. 21 с.
Режим общего битрейта : Переменный
Общий поток : 2134 Кбит/сек
Дата кодирования : UTC 2010-02-11 21:06:07
Дата пометки : UTC 2010-02-11 21:06:07
gsst : 0
gstd : 321851
gssd : B4A7DDA42MH1358785327926077
gshh : r2---sn-4g57kues.c.youtube.com
Видео
Идентификатор : 2
Формат : AVC
Формат/Информация : Advanced Video Codec
Профиль формата : [url=mailto:[email protected]][email protected][/url]
Параметр CABAC формата : Да
Параметр ReFrames формата : 3 кадра
Идентификатор кодека : avc1
Идентификатор кодека/Информация : Advanced Video Coding
Продолжительность : 5 м. 21 с.
Битрейт : 2005 Кбит/сек
Максимальный битрейт : 4557 Кбит/сек
Ширина : 1280 пикселей
Высота : 720 пикселей
Соотношение сторон : 16:9
Режим частоты кадров : Постоянный
Частота кадров : 30,000 кадров/сек
Цветовое пространство : YUV
Субдискретизация насыщенности : 4:2:0
Битовая глубина : 8 бит
Тип развёртки : Прогрессивная
Бит/(Пиксели*Кадры) : 0.073
Размер потока : 76,8 Мбайт (94%)
Заголовок : (C) 2007 Google Inc. v08.13.2007.
Дата кодирования : UTC 2010-02-11 21:06:07
Дата пометки : UTC 2010-02-11 21:06:09
Аудио
Идентификатор : 1
Формат : AAC
Формат/Информация : Advanced Audio Codec
Профиль формата : LC
Идентификатор кодека : 40
Продолжительность : 5 м. 21 с.
Вид битрейта : Переменный
Битрейт : 126 Кбит/сек
Максимальный битрейт : 151 Кбит/сек
Каналы : 2 канала
Расположение каналов : Front: L R
Частота : 44,1 КГц
Метод сжатия : С потерями
Размер потока : 4,82 Мбайт (6%)
Заголовок : (C) 2007 Google Inc. v08.13.2007.
Дата кодирования : UTC 2010-02-11 21:06:07
Дата пометки : UTC 2010-02-11 21:06:09
Общее
Полное имя : D:\Archyv\Clips\The best videos of all time (Rock'n'roll)\12. Dancing at Jack Rabbit Slim's - Pulp Fiction.mp4
Формат : MPEG-4
Профиль формата : Base Media / Version 2
Идентификатор кодека : mp42
Размер файла : 31,7 Мбайт
Продолжительность : 2 м. 26 с.
Режим общего битрейта : Переменный
Общий поток : 1811 Кбит/сек
Дата кодирования : UTC 2011-09-27 07:22:25
Дата пометки : UTC 2011-09-27 07:22:25
gsst : 0
gstd : 146646
gssd : B4A7D6E2CHH1358837555480595
gshh : r12---sn-n8v7lne6.c.youtube.com
Видео
Идентификатор : 1
Формат : AVC
Формат/Информация : Advanced Video Codec
Профиль формата : [url=mailto:[email protected]][email protected][/url]
Параметр CABAC формата : Да
Параметр ReFrames формата : 1 кадр
Параметр GOP формата : M=1, N=30
Идентификатор кодека : avc1
Идентификатор кодека/Информация : Advanced Video Coding
Продолжительность : 2 м. 26 с.
Битрейт : 1654 Кбит/сек
Максимальный битрейт : 2565 Кбит/сек
Ширина : 1280 пикселей
Высота : 720 пикселей
Соотношение сторон : 16:9
Режим частоты кадров : Переменный
Частота кадров : 23,976 кадра/сек
Минимальная частота кадров : 23,810 кадра/сек
Максимальная частота кадров : 24,390 кадра/сек
Цветовое пространство : YUV
Субдискретизация насыщенности : 4:2:0
Битовая глубина : 8 бит
Тип развёртки : Прогрессивная
Бит/(Пиксели*Кадры) : 0.075
Размер потока : 28,9 Мбайт (91%)
Дата пометки : UTC 2011-09-27 07:22:25
Аудио
Идентификатор : 2
Формат : AAC
Формат/Информация : Advanced Audio Codec
Профиль формата : LC
Идентификатор кодека : 40
Продолжительность : 2 м. 26 с.
Вид битрейта : Переменный
Битрейт : 152 Кбит/сек
Максимальный битрейт : 173 Кбит/сек
Каналы : 2 канала
Расположение каналов : Front: L R
Частота : 44,1 КГц
Метод сжатия : С потерями
Размер потока : 2,66 Мбайт (8%)
Заголовок : IsoMedia File Produced by Google, 5-11-2011
Дата кодирования : UTC 2011-09-27 07:22:25
Дата пометки : UTC 2011-09-27 07:22:25
Общее
Полное имя : D:\Archyv\Clips\The best videos of all time (Rock'n'roll)\13. Elvis Presley - Suspicious Minds.mp4
Формат : MPEG-4
Профиль формата : Base Media / Version 2
Идентификатор кодека : mp42
Размер файла : 70,4 Мбайт
Продолжительность : 4 м. 5 с.
Режим общего битрейта : Переменный
Общий поток : 2408 Кбит/сек
Дата кодирования : UTC 2011-01-25 19:44:38
Дата пометки : UTC 2011-01-25 19:44:38
gsst : 0
gstd : 245311
gssd : BADC23A48MH1358785616003826
gshh : r8---sn-n8v7ln7r.c.youtube.com
Видео
Идентификатор : 1
Формат : AVC
Формат/Информация : Advanced Video Codec
Профиль формата : [url=mailto:[email protected]][email protected][/url]
Параметр CABAC формата : Да
Параметр ReFrames формата : 1 кадр
Параметр GOP формата : M=1, N=30
Идентификатор кодека : avc1
Идентификатор кодека/Информация : Advanced Video Coding
Продолжительность : 4 м. 5 с.
Битрейт : 2274 Кбит/сек
Максимальный битрейт : 5190 Кбит/сек
Ширина : 1280 пикселей
Высота : 720 пикселей
Соотношение сторон : 16:9
Режим частоты кадров : Переменный
Частота кадров : 29,970 кадров/сек
Минимальная частота кадров : 29,412 кадров/сек
Максимальная частота кадров : 30,303 кадров/сек
Цветовое пространство : YUV
Субдискретизация насыщенности : 4:2:0
Битовая глубина : 8 бит
Тип развёртки : Прогрессивная
Бит/(Пиксели*Кадры) : 0.082
Размер потока : 66,5 Мбайт (94%)
Дата пометки : UTC 2011-01-25 19:44:46
Аудио
Идентификатор : 2
Формат : AAC
Формат/Информация : Advanced Audio Codec
Профиль формата : LC
Идентификатор кодека : 40
Продолжительность : 4 м. 4 с.
Вид битрейта : Переменный
Битрейт : 128 Кбит/сек
Максимальный битрейт : 141 Кбит/сек
Каналы : 2 канала
Расположение каналов : Front: L R
Частота : 44,1 КГц
Метод сжатия : С потерями
Размер потока : 3,72 Мбайт (5%)
Заголовок : (C) 2007 Google Inc. v08.13.2007.
Дата кодирования : UTC 2011-01-25 19:44:43
Дата пометки : UTC 2011-01-25 19:44:46
Общее
Полное имя : D:\Archyv\Clips\The best videos of all time (Rock'n'roll)\14. Foo Fighters - Rock and Roll Feat Led Zeppelin.mp4
Формат : MPEG-4
Профиль формата : Base Media / Version 2
Идентификатор кодека : mp42
Размер файла : 102 Мбайт
Продолжительность : 4 м. 32 с.
Режим общего битрейта : Переменный
Общий поток : 3150 Кбит/сек
Дата кодирования : UTC 2011-06-11 20:20:07
Дата пометки : UTC 2011-06-11 20:20:07
gsst : 0
gstd : 272791
gssd : BADC23A82MH1358785186322611
gshh : r2---sn-n8v7lne7.c.youtube.com
Видео
Идентификатор : 1
Формат : AVC
Формат/Информация : Advanced Video Codec
Профиль формата : [url=mailto:[email protected]][email protected][/url]
Параметр CABAC формата : Да
Параметр ReFrames формата : 1 кадр
Идентификатор кодека : avc1
Идентификатор кодека/Информация : Advanced Video Coding
Продолжительность : 4 м. 32 с.
Битрейт : 2992 Кбит/сек
Максимальный битрейт : 5032 Кбит/сек
Ширина : 1280 пикселей
Высота : 720 пикселей
Соотношение сторон : 16:9
Режим частоты кадров : Переменный
Частота кадров : 24,000 кадра/сек
Минимальная частота кадров : 23,810 кадра/сек
Максимальная частота кадров : 24,390 кадра/сек
Цветовое пространство : YUV
Субдискретизация насыщенности : 4:2:0
Битовая глубина : 8 бит
Тип развёртки : Прогрессивная
Бит/(Пиксели*Кадры) : 0.135
Размер потока : 97,3 Мбайт (95%)
Дата пометки : UTC 2011-06-11 20:20:13
Аудио
Идентификатор : 2
Формат : AAC
Формат/Информация : Advanced Audio Codec
Профиль формата : LC
Идентификатор кодека : 40
Продолжительность : 4 м. 32 с.
Вид битрейта : Переменный
Битрейт : 152 Кбит/сек
Максимальный битрейт : 177 Кбит/сек
Каналы : 2 канала
Расположение каналов : Front: L R
Частота : 44,1 КГц
Метод сжатия : С потерями
Размер потока : 4,94 Мбайт (5%)
Заголовок : IsoMedia File Produced by Google, 5-11-2011
Дата кодирования : UTC 2011-06-11 20:20:10
Дата пометки : UTC 2011-06-11 20:20:13
Общее
Полное имя : D:\Archyv\Clips\The best videos of all time (Rock'n'roll)\15. Jerry Lee Lewis - WHad I Say , Whole Lot Of Shakin' Got On.mp4
Формат : MPEG-4
Профиль формата : Base Media / Version 2
Идентификатор кодека : mp42
Размер файла : 55,8 Мбайт
Продолжительность : 2 м. 41 с.
Режим общего битрейта : Переменный
Общий поток : 2892 Кбит/сек
Дата кодирования : UTC 2011-01-03 11:29:47
Дата пометки : UTC 2011-01-03 11:29:47
gsst : 0
gstd : 161773
gssd : BADC23AC2MH1358788793771295
gshh : r2---sn-n8v7lnel.c.youtube.com
Видео
Идентификатор : 1
Формат : AVC
Формат/Информация : Advanced Video Codec
Профиль формата : [url=mailto:[email protected]][email protected][/url]
Параметр CABAC формата : Да
Параметр ReFrames формата : 1 кадр
Параметр GOP формата : M=1, N=30
Идентификатор кодека : avc1
Идентификатор кодека/Информация : Advanced Video Coding
Продолжительность : 2 м. 41 с.
Битрейт : 2758 Кбит/сек
Максимальный битрейт : 4440 Кбит/сек
Ширина : 1280 пикселей
Высота : 720 пикселей
Соотношение сторон : 16:9
Режим частоты кадров : Переменный
Частота кадров : 29,970 кадров/сек
Минимальная частота кадров : 29,412 кадров/сек
Максимальная частота кадров : 200,000 кадров/сек
Цветовое пространство : YUV
Субдискретизация насыщенности : 4:2:0
Битовая глубина : 8 бит
Тип развёртки : Прогрессивная
Бит/(Пиксели*Кадры) : 0.100
Размер потока : 53,2 Мбайт (95%)
Дата пометки : UTC 2011-01-03 11:29:50
Аудио
Идентификатор : 2
Формат : AAC
Формат/Информация : Advanced Audio Codec
Профиль формата : LC
Идентификатор кодека : 40
Продолжительность : 2 м. 41 с.
Вид битрейта : Переменный
Битрейт : 128 Кбит/сек
Максимальный битрейт : 180 Кбит/сек
Каналы : 2 канала
Расположение каналов : Front: L R
Частота : 44,1 КГц
Метод сжатия : С потерями
Размер потока : 2,47 Мбайт (4%)
Заголовок : (C) 2007 Google Inc. v08.13.2007.
Дата кодирования : UTC 2011-01-03 11:29:49
Дата пометки : UTC 2011-01-03 11:29:50
Общее
Полное имя : D:\Archyv\Clips\The best videos of all time (Rock'n'roll)\16. Little Richard - Good Golly, Miss Molly & Tutti Frutti.mp4
Формат : MPEG-4
Профиль формата : Base Media / Version 2
Идентификатор кодека : mp42
Размер файла : 77,0 Мбайт
Продолжительность : 3 м. 44 с.
Режим общего битрейта : Переменный
Общий поток : 2877 Кбит/сек
Дата кодирования : UTC 2011-10-14 12:18:25
Дата пометки : UTC 2011-10-14 12:18:25
gsst : 0
gstd : 224488
gssd : B4A7DDA65MH1358789331577802
gshh : r5---sn-4g57kuez.c.youtube.com
Видео
Идентификатор : 1
Формат : AVC
Формат/Информация : Advanced Video Codec
Профиль формата : [url=mailto:[email protected]][email protected][/url]
Параметр CABAC формата : Да
Параметр ReFrames формата : 1 кадр
Параметр GOP формата : M=1, N=30
Идентификатор кодека : avc1
Идентификатор кодека/Информация : Advanced Video Coding
Продолжительность : 3 м. 44 с.
Битрейт : 2719 Кбит/сек
Максимальный битрейт : 4423 Кбит/сек
Ширина : 1280 пикселей
Высота : 720 пикселей
Соотношение сторон : 16:9
Режим частоты кадров : Переменный
Частота кадров : 29,917 кадров/сек
Минимальная частота кадров : 29,412 кадров/сек
Максимальная частота кадров : 30,303 кадров/сек
Цветовое пространство : YUV
Субдискретизация насыщенности : 4:2:0
Битовая глубина : 8 бит
Тип развёртки : Прогрессивная
Бит/(Пиксели*Кадры) : 0.099
Размер потока : 72,8 Мбайт (94%)
Дата пометки : UTC 2011-10-14 12:18:26
Аудио
Идентификатор : 2
Формат : AAC
Формат/Информация : Advanced Audio Codec
Профиль формата : LC
Идентификатор кодека : 40
Продолжительность : 3 м. 44 с.
Вид битрейта : Переменный
Битрейт : 152 Кбит/сек
Максимальный битрейт : 169 Кбит/сек
Каналы : 2 канала
Расположение каналов : Front: L R
Частота : 44,1 КГц
Метод сжатия : С потерями
Размер потока : 4,07 Мбайт (5%)
Заголовок : IsoMedia File Produced by Google, 5-11-2011
Дата кодирования : UTC 2011-10-14 12:18:26
Дата пометки : UTC 2011-10-14 12:18:26
Общее
Полное имя : D:\Archyv\Clips\The best videos of all time (Rock'n'roll)\17. James Brown - Living in America (Rocky IV).mp4
Формат : MPEG-4
Профиль формата : Base Media / Version 2
Идентификатор кодека : mp42
Размер файла : 80,6 Мбайт
Продолжительность : 5 м. 16 с.
Режим общего битрейта : Переменный
Общий поток : 2136 Кбит/сек
Дата кодирования : UTC 2009-10-18 05:54:32
Дата пометки : UTC 2009-10-18 05:54:32
gsst : 0
gstd : 317021
gssd : BADC23AA6MH1358788242615838
gshh : r6---sn-n8v7lnee.c.youtube.com
Видео
Идентификатор : 2
Формат : AVC
Формат/Информация : Advanced Video Codec
Профиль формата : [url=mailto:[email protected]][email protected][/url]
Параметр CABAC формата : Да
Параметр ReFrames формата : 3 кадра
Идентификатор кодека : avc1
Идентификатор кодека/Информация : Advanced Video Coding
Продолжительность : 5 м. 16 с.
Битрейт : 2002 Кбит/сек
Максимальный битрейт : 3155 Кбит/сек
Ширина : 1280 пикселей
Высота : 720 пикселей
Соотношение сторон : 16:9
Режим частоты кадров : Постоянный
Частота кадров : 29,970 кадров/сек
Цветовое пространство : YUV
Субдискретизация насыщенности : 4:2:0
Битовая глубина : 8 бит
Тип развёртки : Прогрессивная
Бит/(Пиксели*Кадры) : 0.072
Размер потока : 75,6 Мбайт (94%)
Заголовок : (C) 2007 Google Inc. v08.13.2007.
Дата кодирования : UTC 2009-10-18 05:54:33
Дата пометки : UTC 2009-10-18 05:54:35
Аудио
Идентификатор : 1
Формат : AAC
Формат/Информация : Advanced Audio Codec
Профиль формата : LC
Идентификатор кодека : 40
Продолжительность : 5 м. 16 с.
Вид битрейта : Переменный
Битрейт : 132 Кбит/сек
Максимальный битрейт : 249 Кбит/сек
Каналы : 2 канала
Расположение каналов : Front: L R
Частота : 44,1 КГц
Метод сжатия : С потерями
Размер потока : 4,96 Мбайт (6%)
Заголовок : (C) 2007 Google Inc. v08.13.2007.
Дата кодирования : UTC 2009-10-18 05:54:32
Дата пометки : UTC 2009-10-18 05:54:35
Общее
Полное имя : D:\Archyv\Clips\The best videos of all time (Rock'n'roll)\18. Jennel Garcia - I Love Rock N Roll.mp4
Формат : MPEG-4
Профиль формата : Base Media / Version 2
Идентификатор кодека : mp42
Размер файла : 47,5 Мбайт
Продолжительность : 2 м. 4 с.
Режим общего битрейта : Переменный
Общий поток : 3195 Кбит/сек
Дата кодирования : UTC 2012-11-07 09:17:04
Дата пометки : UTC 2012-11-07 09:17:04
gsst : 0
gstd : 124876
gssd : BADC23AEAMH1358788580134510
gshh : r10---sn-n8v7lnes.c.youtube.com
Видео
Идентификатор : 1
Формат : AVC
Формат/Информация : Advanced Video Codec
Профиль формата : [url=mailto:[email protected]][email protected][/url]
Параметр CABAC формата : Да
Параметр ReFrames формата : 1 кадр
Идентификатор кодека : avc1
Идентификатор кодека/Информация : Advanced Video Coding
Продолжительность : 2 м. 4 с.
Битрейт : 3000 Кбит/сек
Максимальный битрейт : 7298 Кбит/сек
Ширина : 1280 пикселей
Высота : 720 пикселей
Соотношение сторон : 16:9
Режим частоты кадров : Постоянный
Частота кадров : 25,000 кадров/сек
Цветовое пространство : YUV
Субдискретизация насыщенности : 4:2:0
Битовая глубина : 8 бит
Тип развёртки : Прогрессивная
Бит/(Пиксели*Кадры) : 0.130
Размер потока : 44,6 Мбайт (94%)
Дата пометки : UTC 2012-11-07 09:17:04
Аудио
Идентификатор : 2
Формат : AAC
Формат/Информация : Advanced Audio Codec
Профиль формата : LC
Идентификатор кодека : 40
Продолжительность : 2 м. 4 с.
Вид битрейта : Переменный
Битрейт : 192 Кбит/сек
Максимальный битрейт : 201 Кбит/сек
Каналы : 2 канала
Расположение каналов : Front: L R
Частота : 44,1 КГц
Метод сжатия : С потерями
Размер потока : 2,85 Мбайт (6%)
Заголовок : IsoMedia File Produced by Google, 5-11-2011
Дата кодирования : UTC 2012-11-07 09:17:04
Дата пометки : UTC 2012-11-07 09:17:04
Общее
Полное имя : D:\Archyv\Clips\The best videos of all time (Rock'n'roll)\19. Johnny Winter - Good Morning Little Schoolgirl.mp4
Формат : MPEG-4
Профиль формата : Base Media / Version 2
Идентификатор кодека : mp42
Размер файла : 75,0 Мбайт
Продолжительность : 4 м. 17 с.
Режим общего битрейта : Переменный
Общий поток : 2443 Кбит/сек
Дата кодирования : UTC 2011-12-26 05:57:25
Дата пометки : UTC 2011-12-26 05:57:25
gsst : 0
gstd : 257763
gssd : B4A7DD127MH1358789951540727
gshh : r7---sn-5hn7su7l.c.youtube.com
Видео
Идентификатор : 1
Формат : AVC
Формат/Информация : Advanced Video Codec
Профиль формата : [url=mailto:[email protected]][email protected][/url]
Параметр CABAC формата : Да
Параметр ReFrames формата : 1 кадр
Параметр GOP формата : M=1, N=30
Идентификатор кодека : avc1
Идентификатор кодека/Информация : Advanced Video Coding
Продолжительность : 4 м. 17 с.
Битрейт : 2289 Кбит/сек
Максимальный битрейт : 3770 Кбит/сек
Ширина : 1280 пикселей
Высота : 720 пикселей
Соотношение сторон : 16:9
Режим частоты кадров : Постоянный
Частота кадров : 25,000 кадров/сек
Цветовое пространство : YUV
Субдискретизация насыщенности : 4:2:0
Битовая глубина : 8 бит
Тип развёртки : Прогрессивная
Бит/(Пиксели*Кадры) : 0.099
Размер потока : 70,3 Мбайт (94%)
Дата пометки : UTC 2011-12-26 05:57:25
Аудио
Идентификатор : 2
Формат : AAC
Формат/Информация : Advanced Audio Codec
Профиль формата : LC
Идентификатор кодека : 40
Продолжительность : 4 м. 17 с.
Вид битрейта : Переменный
Битрейт : 151 Кбит/сек
Максимальный битрейт : 249 Кбит/сек
Каналы : 2 канала
Расположение каналов : Front: L R
Частота : 44,1 КГц
Метод сжатия : С потерями
Размер потока : 4,64 Мбайт (6%)
Заголовок : IsoMedia File Produced by Google, 5-11-2011
Дата кодирования : UTC 2011-12-26 05:57:25
Дата пометки : UTC 2011-12-26 05:57:25
Общее
Полное имя : D:\Archyv\Clips\The best videos of all time (Rock'n'roll)\20. Motorhead - Rock 'n' Roll.mp4
Формат : MPEG-4
Профиль формата : Base Media / Version 2
Идентификатор кодека : mp42
Размер файла : 74,4 Мбайт
Продолжительность : 4 м. 1 с.
Режим общего битрейта : Переменный
Общий поток : 2587 Кбит/сек
Дата кодирования : UTC 2011-04-06 00:45:48
Дата пометки : UTC 2011-04-06 00:45:48
gsst : 0
gstd : 241223
gssd : B4A7D6E05MH1358784555880463
gshh : r5---sn-n8v7lnez.c.youtube.com
Видео
Идентификатор : 1
Формат : AVC
Формат/Информация : Advanced Video Codec
Профиль формата : [url=mailto:[email protected]][email protected][/url]
Параметр CABAC формата : Да
Параметр ReFrames формата : 1 кадр
Параметр GOP формата : M=1, N=30
Идентификатор кодека : avc1
Идентификатор кодека/Информация : Advanced Video Coding
Продолжительность : 4 м. 1 с.
Битрейт : 2429 Кбит/сек
Максимальный битрейт : 8112 Кбит/сек
Ширина : 1280 пикселей
Высота : 720 пикселей
Соотношение сторон : 16:9
Режим частоты кадров : Переменный
Частота кадров : 29,970 кадров/сек
Минимальная частота кадров : 29,412 кадров/сек
Максимальная частота кадров : 200,000 кадров/сек
Цветовое пространство : YUV
Субдискретизация насыщенности : 4:2:0
Битовая глубина : 8 бит
Тип развёртки : Прогрессивная
Бит/(Пиксели*Кадры) : 0.088
Размер потока : 69,8 Мбайт (94%)
Дата пометки : UTC 2011-04-06 00:45:52
Аудио
Идентификатор : 2
Формат : AAC
Формат/Информация : Advanced Audio Codec
Профиль формата : LC
Идентификатор кодека : 40
Продолжительность : 4 м. 1 с.
Вид битрейта : Переменный
Битрейт : 152 Кбит/сек
Максимальный битрейт : 233 Кбит/сек
Каналы : 2 канала
Расположение каналов : Front: L R
Частота : 44,1 КГц
Метод сжатия : С потерями
Размер потока : 4,36 Мбайт (6%)
Заголовок : (C) 2007 Google Inc. v08.13.2007.
Дата кодирования : UTC 2011-04-06 00:45:51
Дата пометки : UTC 2011-04-06 00:45:52
Общее
Полное имя : D:\Archyv\Clips\The best videos of all time (Rock'n'roll)\21. Helen Schneider - Rock'n Roll Gypsy.mp4
Формат : MPEG-4
Профиль формата : Base Media / Version 2
Идентификатор кодека : mp42
Размер файла : 112 Мбайт
Продолжительность : 4 м. 59 с.
Режим общего битрейта : Переменный
Общий поток : 3145 Кбит/сек
Дата кодирования : UTC 2011-04-08 03:09:38
Дата пометки : UTC 2011-04-08 03:09:38
gsst : 0
gstd : 299480
gssd : B4A7DDAE6MH1358836383004918
gshh : r6---sn-4g57kuer.c.youtube.com
Видео
Идентификатор : 1
Формат : AVC
Формат/Информация : Advanced Video Codec
Профиль формата : [url=mailto:[email protected]][email protected][/url]
Параметр CABAC формата : Да
Параметр ReFrames формата : 1 кадр
Идентификатор кодека : avc1
Идентификатор кодека/Информация : Advanced Video Coding
Продолжительность : 4 м. 59 с.
Битрейт : 2988 Кбит/сек
Максимальный битрейт : 5071 Кбит/сек
Ширина : 1280 пикселей
Высота : 720 пикселей
Соотношение сторон : 16:9
Режим частоты кадров : Постоянный
Частота кадров : 25,000 кадров/сек
Цветовое пространство : YUV
Субдискретизация насыщенности : 4:2:0
Битовая глубина : 8 бит
Тип развёртки : Прогрессивная
Бит/(Пиксели*Кадры) : 0.130
Размер потока : 107 Мбайт (95%)
Дата пометки : UTC 2011-04-08 03:09:44
Аудио
Идентификатор : 2
Формат : AAC
Формат/Информация : Advanced Audio Codec
Профиль формата : LC
Идентификатор кодека : 40
Продолжительность : 4 м. 59 с.
Вид битрейта : Переменный
Битрейт : 152 Кбит/сек
Максимальный битрейт : 168 Кбит/сек
Каналы : 2 канала
Расположение каналов : Front: L R
Частота : 44,1 КГц
Метод сжатия : С потерями
Размер потока : 5,42 Мбайт (5%)
Заголовок : (C) 2007 Google Inc. v08.13.2007.
Дата кодирования : UTC 2011-04-08 03:09:41
Дата пометки : UTC 2011-04-08 03:09:44
Общее
Полное имя : D:\Archyv\Clips\The best videos of all time (Rock'n'roll)\22. Elvis Presley - Teddy Bear.mp4
Формат : MPEG-4
Профиль формата : Base Media / Version 2
Идентификатор кодека : mp42
Размер файла : 33,9 Мбайт
Продолжительность : 1 м. 52 с.
Режим общего битрейта : Переменный
Общий поток : 2535 Кбит/сек
Дата кодирования : UTC 2012-07-04 00:38:39
Дата пометки : UTC 2012-07-04 00:38:39
gsst : 0
gstd : 112198
gssd : BADC23AE9MM1358785702402140
gshh : r9---sn-n8v7lnes.c.youtube.com
Видео
Идентификатор : 1
Формат : AVC
Формат/Информация : Advanced Video Codec
Профиль формата : [url=mailto:[email protected]][email protected][/url]
Параметр CABAC формата : Да
Параметр ReFrames формата : 1 кадр
Идентификатор кодека : avc1
Идентификатор кодека/Информация : Advanced Video Coding
Продолжительность : 1 м. 52 с.
Битрейт : 2381 Кбит/сек
Максимальный битрейт : 3799 Кбит/сек
Ширина : 1280 пикселей
Высота : 720 пикселей
Соотношение сторон : 16:9
Режим частоты кадров : Постоянный
Частота кадров : 29,970 кадров/сек
Цветовое пространство : YUV
Субдискретизация насыщенности : 4:2:0
Битовая глубина : 8 бит
Тип развёртки : Прогрессивная
Бит/(Пиксели*Кадры) : 0.086
Размер потока : 31,8 Мбайт (94%)
Дата пометки : UTC 2012-07-04 00:38:39
Аудио
Идентификатор : 2
Формат : AAC
Формат/Информация : Advanced Audio Codec
Профиль формата : LC
Идентификатор кодека : 40
Продолжительность : 1 м. 52 с.
Вид битрейта : Переменный
Битрейт : 152 Кбит/сек
Максимальный битрейт : 168 Кбит/сек
Каналы : 2 канала
Расположение каналов : Front: L R
Частота : 44,1 КГц
Метод сжатия : С потерями
Размер потока : 2,03 Мбайт (6%)
Заголовок : IsoMedia File Produced by Google, 5-11-2011
Дата кодирования : UTC 2012-07-04 00:38:39
Дата пометки : UTC 2012-07-04 00:38:39
Общее
Полное имя : D:\Archyv\Clips\The best videos of all time (Rock'n'roll)\23. The Beatles - Rock And Roll Music.mp4
Формат : MPEG-4
Профиль формата : Base Media / Version 2
Идентификатор кодека : mp42
Размер файла : 30,6 Мбайт
Продолжительность : 2 м. 28 с.
Режим общего битрейта : Переменный
Общий поток : 1729 Кбит/сек
Дата кодирования : UTC 2011-05-19 20:22:06
Дата пометки : UTC 2011-05-19 20:22:06
gsst : 0
gstd : 148541
gssd : B4A7DDA65MH1358786725106435
gshh : r5---sn-4g57kuez.c.youtube.com
Видео
Идентификатор : 1
Формат : AVC
Формат/Информация : Advanced Video Codec
Профиль формата : [url=mailto:[email protected]][email protected][/url]
Параметр CABAC формата : Да
Параметр ReFrames формата : 1 кадр
Параметр GOP формата : M=1, N=30
Идентификатор кодека : avc1
Идентификатор кодека/Информация : Advanced Video Coding
Продолжительность : 2 м. 28 с.
Битрейт : 1571 Кбит/сек
Максимальный битрейт : 2412 Кбит/сек
Ширина : 1200 пикселей
Высота : 720 пикселей
Соотношение сторон : 1,667
Режим частоты кадров : Переменный
Частота кадров : 30,000 кадров/сек
Минимальная частота кадров : 29,412 кадров/сек
Максимальная частота кадров : 55,556 кадров/сек
Цветовое пространство : YUV
Субдискретизация насыщенности : 4:2:0
Битовая глубина : 8 бит
Тип развёртки : Прогрессивная
Бит/(Пиксели*Кадры) : 0.061
Размер потока : 27,8 Мбайт (91%)
Дата пометки : UTC 2011-05-19 20:22:07
Аудио
Идентификатор : 2
Формат : AAC
Формат/Информация : Advanced Audio Codec
Профиль формата : LC
Идентификатор кодека : 40
Продолжительность : 2 м. 28 с.
Вид битрейта : Переменный
Битрейт : 152 Кбит/сек
Максимальный битрейт : 174 Кбит/сек
Каналы : 2 канала
Расположение каналов : Front: L R
Частота : 44,1 КГц
Метод сжатия : С потерями
Размер потока : 2,69 Мбайт (9%)
Дата кодирования : UTC 2011-05-19 20:22:06
Дата пометки : UTC 2011-05-19 20:22:07
Скриншоты:          
Other forum [Profile] [PM]
Similar theme
Forum Topic Author Torrent Replies Last Post
./templates/default/images/folder_dl.gif Фильмы 2011-2020 Отель «Мэриголд»: Лучший из экзотических / The Best Exotic Marigold Hotel (Джон Мэдден / John Madden) [2011,драма, комедия, HDRip][Лицензия] BoxeR
1 | 0

0 | 1161

12

2012-06-21 11:24
BoxeR Latest
./templates/default/images/folder_dl.gif Развлекательные телепередачи и шоу, приколы и юмор Лучшие песни-2012 (2012) SATRip Omen
0 | 1

0 | 727

0

2013-01-28 04:33
Omen Latest
./templates/default/images/folder_dl.gif Компьютерная литература Я.Б.Шпунт | Сканирование. Лучшие программы, полезные советы [2004] [Pdf] sashau
1 | 0

0 | 846

1

2013-04-24 13:30
sashau Latest
Display posts from previous:    
Reply to topic

The time now is: Today 21:25

All times are GMT + 3 Hours



You cannot post new topics in this forum
You cannot reply to topics in this forum
You cannot edit your posts in this forum
You cannot delete your posts in this forum
You cannot vote in polls in this forum
You cannot attach files in this forum
You cannot download files in this forum