Today is a free download without charge Download

Discovery. Планета мутантов / Mutant Planet (Сатоши Окабе) [2010,Документальный, научно-популярный, флора, фауна] HDTVRip [H.264/720p-LQ] [6 серий из 6]

Reply to topic
 
Author
Message

sashau ®

Gender:

Longevity: 8 years 9 months

Posts: 3497

Торрент-статистика

Post 01-Jun-2013 18:12

[Quote]

Discovery. Планета мутантов / Mutant Planet - Русское название: Планета мутантов
Оригинальное название: Mutant Planet
Страна: Япония, Новая Зеландия
Режиссер / Телекомпания: Сатоши Окабе /NHK, Natural History New Zealand Ltd
Год выпуска: 2010
Жанр: Документальный, научно-популярный, флора, фауна
Описание фильма: Приготовьтесь отправиться в удивительные миры, в которых природа решила нарушить все мыслимые и немыслимые правила и законы. "Планета мутантов" приглашает зрителей проникнуть вглубь животного царства и увидеть, как фантастические эволюционные процессы и силы природы повлияли на происхождение и развитие некоторых необыкновенных животных. Каждая из увлекательных серий - это рассказ о том, как в результате мощных тектонических процессов, происходивших на планете, на свет появились особи, вынужденные активно приспосабливаться к условиям окружающей среды. Мы посетим Новую Зеландию, Австралию, Бразилию, Африку, Мадагаскар и Японию; и всюду сможем проследить за оригинальным образом жизни и нестандартными формами поведения животных, мутировавших с течением времени.
Продолжительность: 5 x ~00:44:00
Перевод: Одноголосый закадровый (профессиональный)
Формат файла: MKV
Видеокодек: MPEG-4 H.264/AVC
Битрейт видео: ~2 600 ... 3 600 kbps
Размер кадра: 1280 x 720
Качество видео: HDTVRip [720p-LQ]
Аудио: AC3, 2.0 channels
Битрейт аудио: 224 kbps
Содержание:

01. Африканская рифтовая долина / Africa's rift valley

Скриншоты:
         

02. Австралия / Australia

Скриншоты:
         

03. Бразилия / Brazil's Cerrado

Скриншоты:
         

04. Япония / Japan

Скриншоты:
         

05. Мадагаскар / Madagascar

Скриншоты:
         
Скриншоты:
         
         

MediaInfo:

Серия 1

Общее
Уникальный идентификатор : 187435459046172597353509611343705024030 (0x8D02C19E4C82FB3FBC1ADD43C310261E)
Полное имя : A:\Релизы\Planet Mutant 720p\01.Africa's.rift.valley.2010.HDTVRip.720p..mkv
Формат : Matroska
Версия формата : Version 2
Размер файла : 1,17 Гбайт
Продолжительность : 44 м.
Общий поток : 3771 Кбит/сек
Название фильма : Africa's rift valley
Дата кодирования : UTC 2012-04-27 17:44:55
Программа кодирования : mkvmerge v3.1.0 ('Happy up here') built on Jan 19 2010 12:09:24
Библиотека кодирования : libebml v0.7.9 + libmatroska v0.8.1
Видео
Идентификатор : 1
Формат : AVC
Формат/Информация : Advanced Video Codec
Профиль формата : [url=mailto:[email protected]][email protected][/url]
Параметр CABAC формата : Да
Параметр ReFrames формата : 6 кадров
Идентификатор кодека : V_MPEG4/ISO/AVC
Продолжительность : 44 м.
Битрейт : 3472 Кбит/сек
Ширина : 1280 пикселей
Высота : 720 пикселей
Соотношение сторон : 16:9
Частота кадров : 25,000 кадров/сек
Цветовое пространство : YUV
Субдискретизация насыщенности : 4:2:0
Битовая глубина : 8 бит
Тип развёртки : Прогрессивная
Бит/(Пиксели*Кадры) : 0.151
Размер потока : 1,08 Гбайт (92%)
Заголовок : MPEG-4 (AVC)
Библиотека кодирования : x264 core 116 r2074 2641b9e
Настройки программы : cabac=1 / ref=6 / deblock=1:-2:-2 / analyse=0x3:0x113 / me=umh / subme=9 / psy=1 / psy_rd=1.10:0.00 / mixed_ref=1 / me_range=24 / chroma_me=1 / trellis=2 / 8x8dct=1 / cqm=0 / deadzone=21,11 / fast_pskip=1 / chroma_qp_offset=-2 / threads=3 / sliced_threads=0 / nr=0 / decimate=1 / interlaced=0 / bluray_compat=0 / constrained_intra=0 / bframes=5 / b_pyramid=2 / b_adapt=2 / b_bias=0 / direct=3 / weightb=1 / open_gop=0 / weightp=2 / keyint=250 / keyint_min=25 / scenecut=40 / intra_refresh=0 / rc_lookahead=48 / rc=crf / mbtree=1 / crf=20.5 / qcomp=0.70 / qpmin=0 / qpmax=69 / qpstep=4 / vbv_maxrate=50000 / vbv_bufsize=62500 / crf_max=0.0 / nal_hrd=none / ip_ratio=1.40 / aq=1:1.00
Язык : English
Default : Да
Forced : Нет
Аудио
Идентификатор : 2
Формат : AC-3
Формат/Информация : Audio Coding 3
Расширение режима : CM (complete main)
Параметр Endianness формата : Big
Идентификатор кодека : A_AC3
Продолжительность : 44 м.
Вид битрейта : Постоянный
Битрейт : 224 Кбит/сек
Каналы : 2 канала
Расположение каналов : Front: L R
Частота : 48,0 КГц
Битовая глубина : 16 бит
Метод сжатия : С потерями
Размер потока : 71,4 Мбайт (6%)
Заголовок : AC3 2.0 224 Kbps
Язык : Russian
Default : Да
Forced : Нет

Серия 2

Общее
Уникальный идентификатор : 253466853520912299421083167152276562364 (0xBEAFF0B83144C6799BD11672F4C0E1BC)
Полное имя : A:\Релизы\Planet Mutant 720p\02.Australia.2010.HDTVRip.720p..mkv
Формат : Matroska
Версия формата : Version 2
Размер файла : 977 Мбайт
Продолжительность : 44 м.
Общий поток : 3087 Кбит/сек
Название фильма : Australia
Дата кодирования : UTC 2012-04-28 03:03:56
Программа кодирования : mkvmerge v3.1.0 ('Happy up here') built on Jan 19 2010 12:09:24
Библиотека кодирования : libebml v0.7.9 + libmatroska v0.8.1
Видео
Идентификатор : 1
Формат : AVC
Формат/Информация : Advanced Video Codec
Профиль формата : [url=mailto:[email protected]][email protected][/url]
Параметр CABAC формата : Да
Параметр ReFrames формата : 6 кадров
Идентификатор кодека : V_MPEG4/ISO/AVC
Продолжительность : 44 м.
Битрейт : 2578 Кбит/сек
Ширина : 1280 пикселей
Высота : 720 пикселей
Соотношение сторон : 16:9
Частота кадров : 25,000 кадров/сек
Цветовое пространство : YUV
Субдискретизация насыщенности : 4:2:0
Битовая глубина : 8 бит
Тип развёртки : Прогрессивная
Бит/(Пиксели*Кадры) : 0.112
Размер потока : 816 Мбайт (84%)
Заголовок : MPEG-4 (AVC)
Библиотека кодирования : x264 core 116 r2074 2641b9e
Настройки программы : cabac=1 / ref=6 / deblock=1:-2:-2 / analyse=0x3:0x113 / me=umh / subme=9 / psy=1 / psy_rd=1.10:0.00 / mixed_ref=1 / me_range=24 / chroma_me=1 / trellis=2 / 8x8dct=1 / cqm=0 / deadzone=21,11 / fast_pskip=1 / chroma_qp_offset=-2 / threads=3 / sliced_threads=0 / nr=0 / decimate=1 / interlaced=0 / bluray_compat=0 / constrained_intra=0 / bframes=6 / b_pyramid=2 / b_adapt=2 / b_bias=0 / direct=3 / weightb=1 / open_gop=0 / weightp=2 / keyint=250 / keyint_min=25 / scenecut=40 / intra_refresh=0 / rc_lookahead=48 / rc=crf / mbtree=1 / crf=20.0 / qcomp=0.70 / qpmin=0 / qpmax=69 / qpstep=4 / vbv_maxrate=50000 / vbv_bufsize=62500 / crf_max=0.0 / nal_hrd=none / ip_ratio=1.40 / aq=1:1.00
Язык : English
Default : Да
Forced : Нет
Аудио #1
Идентификатор : 2
Формат : AC-3
Формат/Информация : Audio Coding 3
Расширение режима : CM (complete main)
Параметр Endianness формата : Big
Идентификатор кодека : A_AC3
Продолжительность : 44 м.
Вид битрейта : Постоянный
Битрейт : 224 Кбит/сек
Каналы : 2 канала
Расположение каналов : Front: L R
Частота : 48,0 КГц
Битовая глубина : 16 бит
Метод сжатия : С потерями
Задержка видео : 123 мс.
Размер потока : 70,9 Мбайт (7%)
Заголовок : AC3 2.0 224 Kbps
Язык : Russian
Default : Да
Forced : Нет
Аудио #2
Идентификатор : 3
Формат : AC-3
Формат/Информация : Audio Coding 3
Расширение режима : CM (complete main)
Параметр Endianness формата : Big
Идентификатор кодека : A_AC3
Продолжительность : 44 м.
Вид битрейта : Постоянный
Битрейт : 224 Кбит/сек
Каналы : 2 канала
Расположение каналов : Front: L R
Частота : 48,0 КГц
Битовая глубина : 16 бит
Метод сжатия : С потерями
Задержка видео : 69 мс.
Размер потока : 70,9 Мбайт (7%)
Заголовок : AC3 2.0 224 Kbps
Язык : English
Default : Нет
Forced : Нет

Серия 3

Общее
Уникальный идентификатор : 204866426658883230857745616513896083458 (0x9A1FD6AC894CF3219FF1CA075DF4F002)
Полное имя : A:\Релизы\Planet Mutant 720p\03.Brazil's.Cerrado.2010.HDTVRip.720p..mkv
Формат : Matroska
Версия формата : Version 2
Размер файла : 1,28 Гбайт
Продолжительность : 44 м.
Общий поток : 4135 Кбит/сек
Название фильма : Brazil's Cerrado
Дата кодирования : UTC 2012-04-28 12:55:55
Программа кодирования : mkvmerge v3.1.0 ('Happy up here') built on Jan 19 2010 12:09:24
Библиотека кодирования : libebml v0.7.9 + libmatroska v0.8.1
Видео
Идентификатор : 1
Формат : AVC
Формат/Информация : Advanced Video Codec
Профиль формата : [url=mailto:[email protected]][email protected][/url]
Параметр CABAC формата : Да
Параметр ReFrames формата : 6 кадров
Идентификатор кодека : V_MPEG4/ISO/AVC
Продолжительность : 44 м.
Битрейт : 3605 Кбит/сек
Ширина : 1280 пикселей
Высота : 720 пикселей
Соотношение сторон : 16:9
Частота кадров : 25,000 кадров/сек
Цветовое пространство : YUV
Субдискретизация насыщенности : 4:2:0
Битовая глубина : 8 бит
Тип развёртки : Прогрессивная
Бит/(Пиксели*Кадры) : 0.156
Размер потока : 1,12 Гбайт (87%)
Заголовок : MPEG-4 (AVC)
Библиотека кодирования : x264 core 116 r2074 2641b9e
Настройки программы : cabac=1 / ref=6 / deblock=1:-2:-2 / analyse=0x3:0x113 / me=umh / subme=9 / psy=1 / psy_rd=1.10:0.00 / mixed_ref=1 / me_range=28 / chroma_me=1 / trellis=2 / 8x8dct=1 / cqm=0 / deadzone=21,11 / fast_pskip=1 / chroma_qp_offset=-2 / threads=3 / sliced_threads=0 / nr=0 / decimate=1 / interlaced=0 / bluray_compat=0 / constrained_intra=0 / bframes=6 / b_pyramid=2 / b_adapt=2 / b_bias=0 / direct=3 / weightb=1 / open_gop=0 / weightp=2 / keyint=250 / keyint_min=25 / scenecut=40 / intra_refresh=0 / rc_lookahead=60 / rc=crf / mbtree=1 / crf=20.2 / qcomp=0.70 / qpmin=0 / qpmax=69 / qpstep=4 / vbv_maxrate=50000 / vbv_bufsize=62500 / crf_max=0.0 / nal_hrd=none / ip_ratio=1.40 / aq=1:1.00
Язык : English
Default : Да
Forced : Нет
Аудио #1
Идентификатор : 2
Формат : AC-3
Формат/Информация : Audio Coding 3
Расширение режима : CM (complete main)
Параметр Endianness формата : Big
Идентификатор кодека : A_AC3
Продолжительность : 44 м.
Вид битрейта : Постоянный
Битрейт : 224 Кбит/сек
Каналы : 2 канала
Расположение каналов : Front: L R
Частота : 48,0 КГц
Битовая глубина : 16 бит
Метод сжатия : С потерями
Задержка видео : 91 мс.
Размер потока : 71,1 Мбайт (5%)
Заголовок : AC3 2.0 224 Kbps
Язык : Russian
Default : Да
Forced : Нет
Аудио #2
Идентификатор : 3
Формат : AC-3
Формат/Информация : Audio Coding 3
Расширение режима : CM (complete main)
Параметр Endianness формата : Big
Идентификатор кодека : A_AC3
Продолжительность : 44 м.
Вид битрейта : Постоянный
Битрейт : 224 Кбит/сек
Каналы : 2 канала
Расположение каналов : Front: L R
Частота : 48,0 КГц
Битовая глубина : 16 бит
Метод сжатия : С потерями
Задержка видео : 37 мс.
Размер потока : 71,1 Мбайт (5%)
Заголовок : AC3 2.0 224 Kbps
Язык : English
Default : Нет
Forced : Нет

Серия 4

Общее
Уникальный идентификатор : 179083380466568464114445883990447338703 (0x86BA3459FF930360A84E6E05122DB4CF)
Полное имя : A:\Релизы\Planet Mutant 720p\04.Japan.2010.HDTVRip.720p..mkv
Формат : Matroska
Версия формата : Version 2
Размер файла : 1,16 Гбайт
Продолжительность : 44 м.
Общий поток : 3744 Кбит/сек
Название фильма : Japan
Дата кодирования : UTC 2012-04-29 11:44:43
Программа кодирования : mkvmerge v3.1.0 ('Happy up here') built on Jan 19 2010 12:09:24
Библиотека кодирования : libebml v0.7.9 + libmatroska v0.8.1
Видео
Идентификатор : 1
Формат : AVC
Формат/Информация : Advanced Video Codec
Профиль формата : [url=mailto:[email protected]][email protected][/url]
Параметр CABAC формата : Да
Параметр ReFrames формата : 7 кадров
Идентификатор кодека : V_MPEG4/ISO/AVC
Продолжительность : 44 м.
Битрейт : 3221 Кбит/сек
Ширина : 1280 пикселей
Высота : 720 пикселей
Соотношение сторон : 16:9
Частота кадров : 25,000 кадров/сек
Цветовое пространство : YUV
Субдискретизация насыщенности : 4:2:0
Битовая глубина : 8 бит
Тип развёртки : Прогрессивная
Бит/(Пиксели*Кадры) : 0.140
Размер потока : 1018 Мбайт (86%)
Заголовок : MPEG-4 (AVC)
Библиотека кодирования : x264 core 116 r2074 2641b9e
Настройки программы : cabac=1 / ref=7 / deblock=1:-3:-3 / analyse=0x3:0x113 / me=umh / subme=9 / psy=1 / psy_rd=1.00:0.15 / mixed_ref=1 / me_range=28 / chroma_me=1 / trellis=2 / 8x8dct=1 / cqm=0 / deadzone=21,11 / fast_pskip=1 / chroma_qp_offset=-3 / threads=3 / sliced_threads=0 / nr=0 / decimate=1 / interlaced=0 / bluray_compat=0 / constrained_intra=0 / bframes=6 / b_pyramid=2 / b_adapt=2 / b_bias=0 / direct=3 / weightb=1 / open_gop=0 / weightp=2 / keyint=250 / keyint_min=25 / scenecut=40 / intra_refresh=0 / rc_lookahead=60 / rc=crf / mbtree=1 / crf=20.5 / qcomp=0.70 / qpmin=0 / qpmax=69 / qpstep=4 / vbv_maxrate=50000 / vbv_bufsize=62500 / crf_max=0.0 / nal_hrd=none / ip_ratio=1.40 / aq=1:1.00
Язык : English
Default : Да
Forced : Нет
Аудио #1
Идентификатор : 2
Формат : AC-3
Формат/Информация : Audio Coding 3
Расширение режима : CM (complete main)
Параметр Endianness формата : Big
Идентификатор кодека : A_AC3
Продолжительность : 44 м.
Вид битрейта : Постоянный
Битрейт : 224 Кбит/сек
Каналы : 2 канала
Расположение каналов : Front: L R
Частота : 48,0 КГц
Битовая глубина : 16 бит
Метод сжатия : С потерями
Размер потока : 70,8 Мбайт (6%)
Заголовок : AC3 2.0 224 Kbps
Язык : Russian
Default : Да
Forced : Нет
Аудио #2
Идентификатор : 3
Формат : AC-3
Формат/Информация : Audio Coding 3
Расширение режима : CM (complete main)
Параметр Endianness формата : Big
Идентификатор кодека : A_AC3
Продолжительность : 44 м.
Вид битрейта : Постоянный
Битрейт : 224 Кбит/сек
Каналы : 2 канала
Расположение каналов : Front: L R
Частота : 48,0 КГц
Битовая глубина : 16 бит
Метод сжатия : С потерями
Размер потока : 70,8 Мбайт (6%)
Заголовок : AC3 2.0 224 Kbps
Язык : English
Default : Нет
Forced : Нет

Серия 5

Общее
Уникальный идентификатор : 211196030964159200035779896881371795884 (0x9EE2E042A5C5683785C15976CE45D1AC)
Полное имя : A:\Релизы\Planet Mutant 720p\05.Madagascar.2010.HDTVRip.720p..mkv
Формат : Matroska
Версия формата : Version 2
Размер файла : 1,09 Гбайт
Продолжительность : 44 м.
Общий поток : 3501 Кбит/сек
Название фильма : Madagascar
Дата кодирования : UTC 2012-04-29 18:21:39
Программа кодирования : mkvmerge v3.1.0 ('Happy up here') built on Jan 19 2010 12:09:24
Библиотека кодирования : libebml v0.7.9 + libmatroska v0.8.1
Видео
Идентификатор : 1
Формат : AVC
Формат/Информация : Advanced Video Codec
Профиль формата : [url=mailto:[email protected]][email protected][/url]
Параметр CABAC формата : Да
Параметр ReFrames формата : 6 кадров
Идентификатор кодека : V_MPEG4/ISO/AVC
Продолжительность : 44 м.
Битрейт : 2983 Кбит/сек
Ширина : 1280 пикселей
Высота : 720 пикселей
Соотношение сторон : 16:9
Частота кадров : 25,000 кадров/сек
Цветовое пространство : YUV
Субдискретизация насыщенности : 4:2:0
Битовая глубина : 8 бит
Тип развёртки : Прогрессивная
Бит/(Пиксели*Кадры) : 0.129
Размер потока : 951 Мбайт (85%)
Заголовок : MPEG-4 (AVC)
Библиотека кодирования : x264 core 116 r2074 2641b9e
Настройки программы : cabac=1 / ref=6 / deblock=1:-2:-2 / analyse=0x3:0x113 / me=umh / subme=9 / psy=1 / psy_rd=1.10:0.00 / mixed_ref=1 / me_range=24 / chroma_me=1 / trellis=2 / 8x8dct=1 / cqm=0 / deadzone=21,11 / fast_pskip=1 / chroma_qp_offset=-2 / threads=3 / sliced_threads=0 / nr=0 / decimate=1 / interlaced=0 / bluray_compat=0 / constrained_intra=0 / bframes=6 / b_pyramid=2 / b_adapt=2 / b_bias=0 / direct=3 / weightb=1 / open_gop=0 / weightp=2 / keyint=250 / keyint_min=25 / scenecut=40 / intra_refresh=0 / rc_lookahead=60 / rc=crf / mbtree=1 / crf=20.0 / qcomp=0.70 / qpmin=10 / qpmax=51 / qpstep=4 / vbv_maxrate=50000 / vbv_bufsize=62500 / crf_max=0.0 / nal_hrd=none / ip_ratio=1.40 / aq=1:1.00
Язык : English
Default : Да
Forced : Нет
Аудио #1
Идентификатор : 2
Формат : AC-3
Формат/Информация : Audio Coding 3
Расширение режима : CM (complete main)
Параметр Endianness формата : Big
Идентификатор кодека : A_AC3
Продолжительность : 44 м.
Вид битрейта : Постоянный
Битрейт : 224 Кбит/сек
Каналы : 2 канала
Расположение каналов : Front: L R
Частота : 48,0 КГц
Битовая глубина : 16 бит
Метод сжатия : С потерями
Размер потока : 71,4 Мбайт (6%)
Заголовок : AC3 2.0 224 Kbps
Язык : Russian
Default : Да
Forced : Нет
Аудио #2
Идентификатор : 3
Формат : AC-3
Формат/Информация : Audio Coding 3
Расширение режима : CM (complete main)
Параметр Endianness формата : Big
Идентификатор кодека : A_AC3
Продолжительность : 44 м.
Вид битрейта : Постоянный
Битрейт : 224 Кбит/сек
Каналы : 2 канала
Расположение каналов : Front: L R
Частота : 48,0 КГц
Битовая глубина : 16 бит
Метод сжатия : С потерями
Размер потока : 71,4 Мбайт (6%)
Заголовок : AC3 2.0 224 Kbps
Язык : English
Default : Нет
Forced : Нет
Пожалуйста, не уходите с раздачи - помогите докачать другим. Если понравился релиз - жмите кнопку "Спасибо"!
Other forum [Profile] [PM]
Display posts from previous:    
Reply to topic

The time now is: Today 15:50

All times are GMT + 3 Hours



You cannot post new topics in this forum
You cannot reply to topics in this forum
You cannot edit your posts in this forum
You cannot delete your posts in this forum
You cannot vote in polls in this forum
You cannot attach files in this forum
You cannot download files in this forum