Today is a free download without charge Download

Влюбленная малютка / Фольксваген-жук / The Love Bug (Роберт Стивенсон / Robert Stevenson) [1968., Семейная комедия, Автоспорт, HDTV 1080p] DUB + MVO + Original (Eng) + Sub (Eng)

Reply to topic
 
Author
Message

Omen ®

Longevity: 8 years 5 months

Posts: 181087

Торрент-статистика

Post 01-Jun-2013 17:50

[Quote]

Фольксваген-жук / The Love Bug
Страна: США
Год выпуска: 1968
Жанр: Семейная комедия, Автоспорт
Продолжительность: 01.47.42
Перевод 1: Профессиональный (дублированный) [РТР]
Перевод 2: Профессиональный (многоголосый закадровый) [ТВ-3]
Оригинальная дорожка: Английская
Субтитры: Английские
Режиссер: Роберт Стивенсон / Robert Stevenson
В ролях: Дин Джонс, Мишель Ли, Дэвид Томлинсон, Бадди Хэкетт, Джо Флинн, Бенсон Фонг, Энди Гранателли, Джо Э. Росс, Ирис Адриан, Нед Глэсс и другие
Описание: Вот машина — но она необычная. Вместе с автомобилем, у которого есть свой собственный разум, мы проследим его историю, начиная с витрины магазина и до гоночной трассы, на которой произойдёт много приключений.
Доп. информация: Шестой совместный релиз. На этот раз, классическая Диснеевская комедия. Как и в прошлый раз - Идея, подбор материала и создание раздачи - естественно тот, кто пишет данный текст. Об остальном позаботился, а это главное - Синхронизация звуковых дорожек, и финальная сборка на уровне контейнера MKV - Softernet. За дорожки благодарю пользователя DD4678.
Качество: HDTV 1080p
Контейнер: MKV
Видео: MPEG-4 AVC Video / 24500 kbps / 1080p / 23.976 fps / 16:9 / High Profile 4.1
Аудио 1: Russian / Dolby AC3 / 2.0 / 48 kHz / 128 kbps / 16-bit - (РТР)
Аудио 2: Russian / Dolby AC3 / 2.0 / 48 kHz / 128 kbps / 16-bit - (ТВ-3)
Аудио 3: English / Dolby AC3 / 5.1 / 48 kHz / 448 kbps / 16-bit

MediaInfo

Общее
Уникальный идентификатор : 190773309288838048096355721150560681848 (0x8F859A57525542D49DA3142C3BC33F78)
Полное имя : ...\The Love Bug.mkv
Формат : Matroska
Версия формата : Version 4 / Version 2
Размер файла : 19,0 Гбайт
Продолжительность : 1 ч. 47 м.
Режим общего битрейта : Переменный
Общий поток : 25,2 Мбит/сек
Дата кодирования : UTC 2010-02-22 21:41:31
Программа кодирования : mkvmerge v5.9.0 ('On The Loose') built on Dec 9 2012 15:37:01
Библиотека кодирования : libebml v1.3.0 + libmatroska v1.4.0
Видео
Идентификатор : 1
Формат : AVC
Формат/Информация : Advanced Video Codec
Профиль формата : [email protected]
Параметр CABAC формата : Да
Параметр ReFrames формата : 3 кадра
Идентификатор кодека : V_MPEG4/ISO/AVC
Продолжительность : 1 ч. 47 м.
Вид битрейта : Переменный
Битрейт : 24,5 Мбит/сек
Максимальный битрейт : 40,0 Мбит/сек
Ширина : 1920 пикселей
Высота : 1080 пикселей
Соотношение сторон : 16:9
Режим частоты кадров : Постоянный
Частота кадров : 23,976 кадра/сек
Цветовое пространство : YUV
Субдискретизация насыщенности : 4:2:0
Битовая глубина : 8 бит
Тип развёртки : Прогрессивная
Бит/(Пиксели*Кадры) : 0.493
Размер потока : 18,1 Гбайт (95%)
Библиотека кодирования : x264 core 120 r2164 da19765
Настройки программы : cabac=1 / ref=4 / deblock=1:-1:-1 / analyse=0x3:0x133 / me=umh / subme=9 / psy=1 / psy_rd=1.00:0.15 / mixed_ref=1 / me_range=16 / chroma_me=1 / trellis=2 / 8x8dct=1 / cqm=0 / deadzone=21,11 / fast_pskip=1 / chroma_qp_offset=-3 / threads=12 / sliced_threads=0 / slices=4 / nr=0 / decimate=1 / interlaced=0 / bluray_compat=0 / constrained_intra=0 / bframes=3 / b_pyramid=1 / b_adapt=2 / b_bias=0 / direct=3 / weightb=1 / open_gop=0 / weightp=0 / keyint=23 / keyint_min=12 / scenecut=40 / intra_refresh=0 / rc_lookahead=23 / rc=2pass / mbtree=1 / bitrate=24506 / ratetol=1.0 / qcomp=0.60 / qpmin=0 / qpmax=51 / qpstep=4 / cplxblur=20.0 / qblur=0.5 / vbv_maxrate=40000 / vbv_bufsize=30000 / nal_hrd=vbr / ip_ratio=1.40 / aq=1:1.00
Default : Да
Forced : Нет
Аудио #1
Идентификатор : 2
Формат : AC-3
Формат/Информация : Audio Coding 3
Расширение режима : CM (complete main)
Параметр Endianness формата : Big
Идентификатор кодека : A_AC3
Продолжительность : 1 ч. 47 м.
Вид битрейта : Постоянный
Битрейт : 128 Кбит/сек
Каналы : 2 канала
Расположение каналов : Front: L R
Частота : 48,0 КГц
Битовая глубина : 16 бит
Метод сжатия : С потерями
Размер потока : 98,6 Мбайт (1%)
Заголовок : DUB (RTR)
Язык : Russian
Default : Нет
Forced : Нет
Аудио #2
Идентификатор : 3
Формат : AC-3
Формат/Информация : Audio Coding 3
Расширение режима : CM (complete main)
Параметр Endianness формата : Big
Идентификатор кодека : A_AC3
Продолжительность : 1 ч. 47 м.
Вид битрейта : Постоянный
Битрейт : 128 Кбит/сек
Каналы : 2 канала
Расположение каналов : Front: L R
Частота : 48,0 КГц
Битовая глубина : 16 бит
Метод сжатия : С потерями
Размер потока : 98,6 Мбайт (1%)
Заголовок : MVO (TV-3)
Язык : Russian
Default : Нет
Forced : Нет
Аудио #3
Идентификатор : 4
Формат : AC-3
Формат/Информация : Audio Coding 3
Расширение режима : CM (complete main)
Параметр Endianness формата : Big
Идентификатор кодека : A_AC3
Продолжительность : 1 ч. 47 м.
Вид битрейта : Постоянный
Битрейт : 448 Кбит/сек
Каналы : 6 каналов
Расположение каналов : Front: L C R, Side: L R, LFE
Частота : 48,0 КГц
Битовая глубина : 16 бит
Метод сжатия : С потерями
Размер потока : 345 Мбайт (2%)
Заголовок : Original
Язык : English
Default : Нет
Forced : Нет
Текст
Идентификатор : 5
Формат : UTF-8
Идентификатор кодека : S_TEXT/UTF8
Идентификатор кодека/Информация : UTF-8 Plain Text
Язык : English
Default : Нет
Forced : Нет

Скриншоты



Cовместные релизы

BDRemux / HDTV 1080p:
Пьета / Pieta
Симона / S1m0ne
В компании волков / The Company of Wolves
Пуля для генерала / A Bullet for the General
_________________________________________________________________________________________________
BDRip 1080p:
Чем заняться мертвецу в Денвере / Things to Do in Denver When You're Dead
Other forum [Profile] [PM]
Display posts from previous:    
Reply to topic

The time now is: Today 11:12

All times are GMT + 3 Hours



You cannot post new topics in this forum
You cannot reply to topics in this forum
You cannot edit your posts in this forum
You cannot delete your posts in this forum
You cannot vote in polls in this forum
You cannot attach files in this forum
You cannot download files in this forum