Сегодня идет свободное скачивание без начисления Download

Матрица: Трилогия / The Matrix: Trilogy (1999,2003) [H.264] BDRip

Ответить на тему
 
Автор
Сообщение

Omen ®

Стаж: 6 лет

Сообщений: 184329

Торрент-статистика

Пост 01-Июн-2013 17:42

[Цитировать]

Матрица / The Matrix (1999) [H.264] BDRip- Русское название: Матрица
Оригинальное название: The Matrix
Год выпуска: 1999
Страна: США , Австралия
Жанр: Фантастика, Боевик, Приключения-Режиссер: Энди Вачовски, Лана Вачовски
Продюсер: Джоэл Силвер, Брюс Берман, Дэн Краччиоло
В ролях: Киану Ривз, Лоуренс Фишберн, Кэри-Энн Мосс, Хьюго Уивинг, Глория Фостер, Джо Пантолиано, Маркус Чонг, Джулиан Араханга, Мэтт Доран, Белинда МакКлори-Описание фильма: Мир Матрицы - это иллюзия, существующая только в бесконечном сне обреченного человечества. Холодный мир будущего, в котором люди всего лишь батарейки в компьютерных системах.- -Бюджет: $63 000 000
Кассовые сборы: $463 517 383
Производство: Warner Bros. Pictures
Дата мировой премьеры: 31 марта 1999-Продолжительность: 02:16:18
Перевод: Профессиональный (Полное дублирование)
Субтитры: Отсутствуют-Качество видео: BDRip
Формат: MKV
Видео: MPEG-4 AVC/H.264, 3500 Kbps, 1024 x 424
Аудио: Русский AC3 5.1, 640 Kbps, 48.0 KHz (Полное дублирование)-

Blu-ray

MediaInfo

Полное имя : The Matrix I.mkv
Формат : Matroska
Версия формата : Version 1
Размер файла : 3,94 Гбайт
Продолжительность : 2 ч. 16 м.
Общий поток : 4143 Кбит/сек
Дата кодирования : UTC 2013-01-12 01:58:15
Программа кодирования : mkvmerge v2.4.1 ('Use Me') built on Dec 5 2008 18:30:05
Библиотека кодирования : libebml v0.7.7 + libmatroska v0.8.1
Видео
Идентификатор : 1
Формат : AVC
Формат/Информация : Advanced Video Codec
Профиль формата : [url=mailto:[email protected]][email protected][/url]
Параметр CABAC формата : Да
Параметр ReFrames формата : 10 кадров
Идентификатор кодека : V_MPEG4/ISO/AVC
Продолжительность : 2 ч. 16 м.
Битрейт : 3500 Кбит/сек
Ширина : 1024 пикселя
Высота : 424 пикселя
Соотношение сторон : 2,40:1
Режим частоты кадров : Постоянный
Частота кадров : 23,976 кадра/сек
Цветовое пространство : YUV
Субдискретизация насыщенности : 4:2:0
Битовая глубина : 8 бит
Тип развёртки : Прогрессивная
Бит/(Пиксели*Кадры) : 0.336
Размер потока : 3,26 Гбайт (83%)
Заголовок : Матрица (1999)
Библиотека кодирования : x264 core 129 r2230 1cffe9f
Настройки программы : cabac=1 / ref=10 / deblock=1:-3:-3 / analyse=0x3:0x133 / me=umh / subme=10 / psy=1 / psy_rd=1.00:0.10 / mixed_ref=1 / me_range=48 / chroma_me=1 / trellis=2 / 8x8dct=1 / cqm=0 / deadzone=21,11 / fast_pskip=0 / chroma_qp_offset=-3 / threads=6 / lookahead_threads=1 / sliced_threads=0 / nr=0 / decimate=1 / interlaced=0 / bluray_compat=0 / constrained_intra=0 / bframes=5 / b_pyramid=2 / b_adapt=2 / b_bias=0 / direct=3 / weightb=1 / open_gop=0 / weightp=2 / keyint=240 / keyint_min=22 / scenecut=40 / intra_refresh=0 / rc_lookahead=40 / rc=2pass / mbtree=1 / bitrate=3500 / ratetol=1.0 / qcomp=0.60 / qpmin=10 / qpmax=51 / qpstep=4 / cplxblur=20.0 / qblur=0.5 / ip_ratio=1.40 / aq=1:1.00
Язык : English
Аудио
Идентификатор : 2
Формат : AC-3
Формат/Информация : Audio Coding 3
Расширение режима : CM (complete main)
Параметр Endianness формата : Big
Идентификатор кодека : A_AC3
Продолжительность : 2 ч. 16 м.
Вид битрейта : Постоянный
Битрейт : 640 Кбит/сек
Каналы : 6 каналов
Расположение каналов : Front: L C R, Side: L R, LFE
Частота : 48,0 КГц
Битовая глубина : 16 бит
Метод сжатия : С потерями
Размер потока : 624 Мбайт (15%)
Заголовок : AC3 (Дублированный)
Язык : Russian
-Скриншоты:            -Матрица: Перезагрузка / The Matrix Reloaded (2003) [H.264] BDRip- Русское название: Матрица: Перезагрузка
Оригинальное название: The Matrix Reloaded
Год выпуска: 2003
Страна: США , Австралия
Жанр: Фантастика, Боевик, Приключения-Режиссер: Энди Вачовски, Лана Вачовски
Продюсер: Джоэл Силвер, Брюс Берман, Дэвид Форбс
В ролях: Киану Ривз, Моника Беллуччи, Лоуренс Фишберн, Кэри-Энн Мосс, Джада Пинкетт Смит, Хьюго Уивинг-Описание фильма: Борцы за свободу Нео, Тринити и Морфеус продолжают руководить восстанием людей против Армии Машин. Для уничтожения системы репрессий и эксплуатации они вынуждены прибегнуть не только к арсеналу превосходного оружия, но и к своим выдающимся навыкам. Участие в миссии по спасению человеческой расы от ее полного истребления приносит им более глубокое понимание конструкции Матрицы и осознание центральной роли Нео в судьбе человечества.- -Бюджет: $150 000 000
Кассовые сборы: $742 128 461
Производство: Warner Bros. Pictures
Дата мировой премьеры: 7 мая 2003-Продолжительность: 02:18:15
Перевод: Профессиональный (Полное дублирование)
Субтитры: Отсутствуют-Качество видео: BDRip
Формат: MKV
Видео: MPEG-4 AVC/H.264, 3500 Kbps, 1024 x 424
Аудио: Русский AC3 5.1, 640 Kbps, 48.0 KHz (Полное дублирование)-

Blu-ray

MediaInfo

Полное имя : The Matrix II.mkv
Формат : Matroska
Версия формата : Version 1
Размер файла : 4,00 Гбайт
Продолжительность : 2 ч. 18 м.
Общий поток : 4143 Кбит/сек
Дата кодирования : UTC 2013-01-13 06:19:06
Программа кодирования : mkvmerge v2.4.1 ('Use Me') built on Dec 5 2008 18:30:05
Библиотека кодирования : libebml v0.7.7 + libmatroska v0.8.1
Видео
Идентификатор : 1
Формат : AVC
Формат/Информация : Advanced Video Codec
Профиль формата : [url=mailto:[email protected]][email protected][/url]
Параметр CABAC формата : Да
Параметр ReFrames формата : 10 кадров
Идентификатор кодека : V_MPEG4/ISO/AVC
Продолжительность : 2 ч. 18 м.
Битрейт : 3500 Кбит/сек
Ширина : 1024 пикселя
Высота : 424 пикселя
Соотношение сторон : 2,40:1
Режим частоты кадров : Постоянный
Частота кадров : 23,976 кадра/сек
Цветовое пространство : YUV
Субдискретизация насыщенности : 4:2:0
Битовая глубина : 8 бит
Тип развёртки : Прогрессивная
Бит/(Пиксели*Кадры) : 0.336
Размер потока : 3,30 Гбайт (83%)
Заголовок : Матрица: Перезагрузка (2003)
Библиотека кодирования : x264 core 129 r2230 1cffe9f
Настройки программы : cabac=1 / ref=10 / deblock=1:-3:-3 / analyse=0x3:0x133 / me=umh / subme=10 / psy=1 / psy_rd=1.00:0.10 / mixed_ref=1 / me_range=48 / chroma_me=1 / trellis=2 / 8x8dct=1 / cqm=0 / deadzone=21,11 / fast_pskip=0 / chroma_qp_offset=-3 / threads=6 / lookahead_threads=1 / sliced_threads=0 / nr=0 / decimate=1 / interlaced=0 / bluray_compat=0 / constrained_intra=0 / bframes=5 / b_pyramid=2 / b_adapt=2 / b_bias=0 / direct=3 / weightb=1 / open_gop=0 / weightp=2 / keyint=240 / keyint_min=22 / scenecut=40 / intra_refresh=0 / rc_lookahead=40 / rc=2pass / mbtree=1 / bitrate=3500 / ratetol=1.0 / qcomp=0.60 / qpmin=10 / qpmax=51 / qpstep=4 / cplxblur=20.0 / qblur=0.5 / ip_ratio=1.40 / aq=1:1.00
Язык : English
Аудио
Идентификатор : 2
Формат : AC-3
Формат/Информация : Audio Coding 3
Расширение режима : CM (complete main)
Параметр Endianness формата : Big
Идентификатор кодека : A_AC3
Продолжительность : 2 ч. 18 м.
Вид битрейта : Постоянный
Битрейт : 640 Кбит/сек
Каналы : 6 каналов
Расположение каналов : Front: L C R, Side: L R, LFE
Частота : 48,0 КГц
Битовая глубина : 16 бит
Метод сжатия : С потерями
Размер потока : 633 Мбайт (15%)
Заголовок : AC3 (Дублированный)
Язык : Russian
-Скриншоты:            -Матрица: Революция / The Matrix Revolutions (2003) [H.264] BDRip- Русское название: Матрица: Революция
Оригинальное название: The Matrix Revolutions
Год выпуска: 2003
Страна: США , Австралия
Жанр: Фантастика, Боевик, Приключения-Режиссер: Энди Вачовски, Лана Вачовски
Продюсер: Джоэл Силвер, Брюс Берман, Дэвид Форбс
В ролях: Киану Ривз, Лоуренс Фишберн, Кэри-Энн Мосс, Джада Пинкетт Смит, Гарольд Перрино, Хьюго Уивинг, Ламбер Вильсон, Нона Гайе, Моника Беллуччи-Описание фильма: Пока армия Машин пытается уничтожить Зион, его жители из последних сил держат оборону. Но удастся ли им предотвратить полное вторжение в город кишащей орды беспощадных машин до того, как Нео соберет все свои силы и положит конец войне?- -Бюджет: $150 000 000
Кассовые сборы: $427 343 298
Производство: Warner Bros. Pictures
Дата мировой премьеры: 27 октября 2003-Продолжительность: 02:09:16
Перевод: Профессиональный (Полное дублирование)
Субтитры: Отсутствуют-Качество видео: BDRip
Формат: MKV
Видео: MPEG-4 AVC/H.264, 3500 Kbps, 1024 x 424
Аудио: Русский AC3 5.1, 640 Kbps, 48.0 KHz (Полное дублирование)-

Blu-ray

MediaInfo

Полное имя : The Matrix III.mkv
Формат : Matroska
Версия формата : Version 1
Размер файла : 3,74 Гбайт
Продолжительность : 2 ч. 9 м.
Общий поток : 4143 Кбит/сек
Дата кодирования : UTC 2013-01-16 08:22:56
Программа кодирования : mkvmerge v2.4.1 ('Use Me') built on Dec 5 2008 18:30:05
Библиотека кодирования : libebml v0.7.7 + libmatroska v0.8.1
Видео
Идентификатор : 1
Формат : AVC
Формат/Информация : Advanced Video Codec
Профиль формата : [url=mailto:[email protected]][email protected][/url]
Параметр CABAC формата : Да
Параметр ReFrames формата : 10 кадров
Идентификатор кодека : V_MPEG4/ISO/AVC
Продолжительность : 2 ч. 9 м.
Битрейт : 3500 Кбит/сек
Ширина : 1024 пикселя
Высота : 424 пикселя
Соотношение сторон : 2,40:1
Режим частоты кадров : Постоянный
Частота кадров : 23,976 кадра/сек
Цветовое пространство : YUV
Субдискретизация насыщенности : 4:2:0
Битовая глубина : 8 бит
Тип развёртки : Прогрессивная
Бит/(Пиксели*Кадры) : 0.336
Размер потока : 3,09 Гбайт (83%)
Заголовок : Матрица: Революция (2003)
Библиотека кодирования : x264 core 129 r2230 1cffe9f
Настройки программы : cabac=1 / ref=10 / deblock=1:-3:-3 / analyse=0x3:0x133 / me=umh / subme=10 / psy=1 / psy_rd=1.00:0.10 / mixed_ref=1 / me_range=48 / chroma_me=1 / trellis=2 / 8x8dct=1 / cqm=0 / deadzone=21,11 / fast_pskip=0 / chroma_qp_offset=-3 / threads=6 / lookahead_threads=1 / sliced_threads=0 / nr=0 / decimate=1 / interlaced=0 / bluray_compat=0 / constrained_intra=0 / bframes=5 / b_pyramid=2 / b_adapt=2 / b_bias=0 / direct=3 / weightb=1 / open_gop=0 / weightp=2 / keyint=240 / keyint_min=22 / scenecut=40 / intra_refresh=0 / rc_lookahead=40 / rc=2pass / mbtree=1 / bitrate=3500 / ratetol=1.0 / qcomp=0.60 / qpmin=10 / qpmax=51 / qpstep=4 / cplxblur=20.0 / qblur=0.5 / ip_ratio=1.40 / aq=1:1.00
Язык : English
Аудио
Идентификатор : 2
Формат : AC-3
Формат/Информация : Audio Coding 3
Расширение режима : CM (complete main)
Параметр Endianness формата : Big
Идентификатор кодека : A_AC3
Продолжительность : 2 ч. 9 м.
Вид битрейта : Постоянный
Битрейт : 640 Кбит/сек
Каналы : 6 каналов
Расположение каналов : Front: L C R, Side: L R, LFE
Частота : 48,0 КГц
Битовая глубина : 16 бит
Метод сжатия : С потерями
Размер потока : 592 Мбайт (15%)
Заголовок : AC3 (Дублированный)
Язык : Russian
-Скриншоты:            -
Вне форума [Профиль] [ЛС]
Показать сообщения:    
Ответить на тему

Текущее время: Сегодня 16:27

Часовой пояс: GMT + 3



Вы не можете начинать темы
Вы не можете отвечать на сообщения
Вы не можете редактировать свои сообщения
Вы не можете удалять свои сообщения
Вы не можете голосовать в опросах
Вы не можете прикреплять файлы к сообщениям
Вы не можете скачивать файлы