Today is a free download without charge Download

Замок моей матери / Le Château de ma mère (Ив Робер /Yves Robert) [1990 г, Франция, Драма, биография, BDRip 720p] VO + Sub Eng + Original Fre

Reply to topic
 
Author
Message

Omen ®

Longevity: 8 years 5 months

Posts: 181087

Торрент-статистика

Post 01-Jun-2013 13:46

[Quote]

Замок моей матери / Le Château de ma mère
-Страна: Франция
Жанр: Драма, биография
Год выпуска: 1990
Продолжительность: 01:38:29-Перевод: Профессиональный (одноголосый)
Cубтитры: английские
Оригинальная аудиодорожка: французский-Режиссер: Ив Робер /Yves Robert-В ролях: Филипп Кобер, Натали Руссель, Дидье Пэн, Тереза Леотар, Жюльен Чамака, Викторьен Деламар, Жорис Молинас, Жюли Тиммерман, Жан Рошфор, Жан Карме, Поль Кроше, Филип Ушан, Патрик Прежан, Жорж Вильсон-Описание:
Вторая часть дилогии - экранизации автобиографического произведения известного французского писателя Марселя Паньоля. Ив Робер продолжает рассказ о детских годах своего героя в этом удивительно трогательном фильме. Рекомендую для всех любителей хорошего европейского кино. Первая часть называется "Гордость моего отца". Сценарий Жерома Тоннерра и Ива Робера по мотивам романа Марселя Паньоля, удостоенного премии Французской Академии. (Иванов М.)--Сэмпл: Скачать-Тип релиза: BDRip 720p
Контейнер: MKV-Видео: 1280x694 (16:9); 8356 Kbps; 24.000 fps; 0.393 bpp
Аудио 1: Russian; AC3; 48.0 KHz; 2ch; 192 Kbps
Аудио 2: English; AC3; 48.0 KHz; 6ch; 448 Kbps
Формат субтитров: softsub (SRT)

MediaInfo

Format : Matroska
Format version : Version 2
File size : 6.31 GiB
Duration : 1h 38mn
Overall bit rate : 9 179 Kbps
Encoded date : UTC 2013-06-01 07:55:10
Writing application : mkvmerge v5.0.1 ('Es ist Sommer') built on Oct 9 2011 11:55:43
Writing library : libebml v1.2.2 + libmatroska v1.3.0
Video
ID : 1
Format : AVC
Format/Info : Advanced Video Codec
Format profile : [email protected]
Format settings, CABAC : Yes
Format settings, ReFrames : 9 frames
Codec ID : V_MPEG4/ISO/AVC
Duration : 1h 38mn
Bit rate : 8 356 Kbps
Width : 1 280 pixels
Height : 692 pixels
Display aspect ratio : 1.85:1
Frame rate mode : Constant
Frame rate : 24.000 fps
Color space : YUV
Chroma subsampling : 4:2:0
Bit depth : 8 bits
Scan type : Progressive
Bits/(Pixel*Frame) : 0.393
Stream size : 5.75 GiB (91%)
Writing library : x264 core 129 r2230kMod 1cffe9f
Encoding settings : cabac=1 / ref=9 / deblock=1:-3:-3 / analyse=0x3:0x113 / me=umh / subme=9 / psy=1 / fade_compensate=0.00 / psy_rd=1.10:0.00 / mixed_ref=1 / me_range=16 / chroma_me=1 / trellis=2 / 8x8dct=1 / cqm=0 / deadzone=21,11 / fast_pskip=0 / chroma_qp_offset=-2 / threads=6 / lookahead_threads=1 / sliced_threads=0 / nr=0 / decimate=0 / interlaced=0 / bluray_compat=0 / constrained_intra=0 / bframes=8 / b_pyramid=2 / b_adapt=2 / b_bias=0 / direct=3 / weightb=1 / open_gop=0 / weightp=2 / keyint=250 / keyint_min=24 / scenecut=40 / intra_refresh=0 / rc=crf / mbtree=0 / crf=18.0000 / qcomp=0.70 / qpmin=0 / qpmax=69 / qpstep=4 / ip_ratio=1.30 / pb_ratio=1.20 / aq=1:0.80
Language : English
Default : Yes
Forced : No
Audio #1
ID : 2
Format : AC-3
Format/Info : Audio Coding 3
Mode extension : CM (complete main)
Format settings, Endianness : Big
Codec ID : A_AC3
Duration : 1h 38mn
Bit rate mode : Constant
Bit rate : 192 Kbps
Channel(s) : 2 channels
Channel positions : Front: L R
Sampling rate : 48.0 KHz
Bit depth : 16 bits
Compression mode : Lossy
Stream size : 135 MiB (2%)
Title : VO Видеосервис
Language : Russian
Default : Yes
Forced : No
Audio #2
ID : 3
Format : AC-3
Format/Info : Audio Coding 3
Mode extension : CM (complete main)
Format settings, Endianness : Big
Codec ID : A_AC3
Duration : 1h 38mn
Bit rate mode : Constant
Bit rate : 448 Kbps
Channel(s) : 6 channels
Channel positions : Front: L C R, Side: L R, LFE
Sampling rate : 48.0 KHz
Bit depth : 16 bits
Compression mode : Lossy
Stream size : 316 MiB (5%)
Language : French
Default : No
Forced : No
Text
ID : 4
Format : UTF-8
Codec ID : S_TEXT/UTF8
Codec ID/Info : UTF-8 Plain Text
Language : English
Default : No
Forced : No
Menu
00:00:00.000 : en:00:00:00.000
00:02:25.875 : en:00:02:25.875
00:10:21.750 : en:00:10:21.750
00:17:23.583 : en:00:17:23.583
00:25:03.625 : en:00:25:03.625
00:31:58.625 : en:00:31:58.625
00:38:04.625 : en:00:38:04.625
00:46:24.167 : en:00:46:24.167
00:55:16.625 : en:00:55:16.625
01:01:19.875 : en:01:01:19.875
01:08:34.583 : en:01:08:34.583
01:17:00.625 : en:01:17:00.625
01:21:34.625 : en:01:21:34.625
01:25:02.625 : en:01:25:02.625
01:29:09.083 : en:01:29:09.083
01:36:23.625 : en:01:36:23.625

Скриншоты

Гордость моего отца /La Gloire de mon père
Other forum [Profile] [PM]
Display posts from previous:    
Reply to topic

The time now is: Today 19:21

All times are GMT + 3 Hours



You cannot post new topics in this forum
You cannot reply to topics in this forum
You cannot edit your posts in this forum
You cannot delete your posts in this forum
You cannot vote in polls in this forum
You cannot attach files in this forum
You cannot download files in this forum