Today is a free download without charge Download

Стукач / Snitch (Рик Роман Во / Ric Roman Waugh) [2013, США, ОАЭ, триллер, драма, BDRip 1080p] Dub + Sub Eng + Original Eng

Reply to topic
 
Author
Message

Omen ®

Longevity: 8 years 5 months

Posts: 181087

Торрент-статистика

Post 01-Jun-2013 13:46

[Quote]

Стукач / Snitch
Страна: США, ОАЭ
Жанр: триллер, драма
Год выпуска: 2013
Продолжительность: 01:51:52
Перевод: Профессиональный (дублированный)
Cубтитры: английские
Оригинальная аудиодорожка: английский
-
Режиссер: Рик Роман Во / Ric Roman Waugh
В ролях: Дуэйн Джонсон, Барри Пеппер, Джон Бернтал, Сьюзен Сарандон, Майкл К. Уильямс, Рафи Гаврон, Мелина Канакаредес, Надин Веласкес, Бенджамин Брэтт, Лела Лорен
-
Описание: Ради спасения сына, которому грозит срок за продажу наркотиков, отец идет на сделку с полицией. Он должен внедриться в самое сердце наркомафии.

Тип релиза: BDRip 1080p
Контейнер: MKV
Видео: H264 / NTSC 16:9 / 1920x800 (2,40:1) / 9850 kbps / 23,976 fps / 0.267 bit/pixel / [email protected]
Аудио 1: Russian / AC3 / 48 kHz / 5.1 Ch / 384 kbps / 16 bit / DUB
Аудио 2: English / DTS / 48 kHz / 5.1 Ch / 1510 kbps / 24 bit / Original
Формат субтитров: softsub (SRT)
Навигация по главам: есть

Доп.инфо

Русские сабы по причине своей убогости в релиз не включены, лучше дождаться их с блюрея.

Отрезок русских сабов))))

274
00:21:05,629 --> 00:21:06,929
Я люблю тебя.
275
00:21:42,800 --> 00:21:44,399
Наркокартеля
276
00:23:24,400 --> 00:23:26,429
- Что вы хотите?
- Кокаин.
277
00:23:26,430 --> 00:23:28,649
Тот материал твердый, человека.
У меня нет.
278
00:23:29,050 --> 00:23:30,513
Просто позвоните другу.
279
00:23:35,600 --> 00:23:38,740
Слушай, мужик. Если вы хотите купить
власти денег.
280
00:23:43,140 --> 00:23:44,440
Отстань от меня!
281
00:23:56,810 --> 00:23:58,427
Он вооружен!
282
00:24:21,920 --> 00:24:23,781
Что у тебя на уме?
283
00:24:23,782 --> 00:24:25,837
К сожалению, чтобы разрушить ваши парни
на станции работы.
284
00:24:25,838 --> 00:24:28,900
Ваш сын не будет
лучше, если вы были мертвы.
Английские сабы пересобрал на предмет ошибок и таймингов (есть грамотеи и за бугром, набивающие сабы "на слух"...)

MediaInfo

Общее
Уникальный идентификатор : 193955543438623010905778261472155245911 (0x91EA7A991D2F8CC0A669E7406FF39D57)
Полное имя : W:\BDRip 1080p\Snitch.2013.BDRip.1080p.mkv
Формат : Matroska
Версия формата : Version 4 / Version 2
Размер файла : 9,18 Гбайт
Продолжительность : 1 ч. 51 м.
Общий поток : 11,7 Мбит/сек
Дата кодирования : UTC 2013-06-01 06:24:43
Программа кодирования : mkvmerge v6.2.0 ('Promised Land') built on Apr 28 2013 12:22:01
Библиотека кодирования : libebml v1.3.0 + libmatroska v1.4.0
Видео
Идентификатор : 1
Формат : AVC
Формат/Информация : Advanced Video Codec
Профиль формата : [email protected]
Параметр CABAC формата : Да
Параметр ReFrames формата : 5 кадров
Идентификатор кодека : V_MPEG4/ISO/AVC
Продолжительность : 1 ч. 51 м.
Битрейт : 9850 Кбит/сек
Ширина : 1920 пикселей
Высота : 800 пикселей
Соотношение сторон : 2,40:1
Режим частоты кадров : Постоянный
Частота кадров : 23,976 кадра/сек
Цветовое пространство : YUV
Субдискретизация насыщенности : 4:2:0
Битовая глубина : 8 бит
Тип развёртки : Прогрессивная
Бит/(Пиксели*Кадры) : 0.267
Размер потока : 7,51 Гбайт (82%)
Библиотека кодирования : x264 core 132 r2310 76a5c3a
Настройки программы : cabac=1 / ref=5 / deblock=1:-3:-3 / analyse=0x3:0x133 / me=tesa / subme=11 / psy=1 / psy_rd=1.05:0.00 / mixed_ref=1 / me_range=24 / chroma_me=1 / trellis=2 / 8x8dct=1 / cqm=0 / deadzone=21,11 / fast_pskip=1 / chroma_qp_offset=-2 / threads=12 / lookahead_threads=2 / sliced_threads=0 / nr=0 / decimate=1 / interlaced=0 / bluray_compat=0 / constrained_intra=0 / bframes=8 / b_pyramid=2 / b_adapt=2 / b_bias=0 / direct=3 / weightb=1 / open_gop=0 / weightp=2 / keyint=240 / keyint_min=23 / scenecut=40 / intra_refresh=0 / rc=2pass / mbtree=0 / bitrate=9850 / ratetol=1.0 / qcomp=0.60 / qpmin=10 / qpmax=69 / qpstep=4 / cplxblur=20.0 / qblur=0.5 / ip_ratio=1.40 / pb_ratio=1.30 / aq=2:0.75
Язык : English
Default : Да
Forced : Нет
Аудио #1
Идентификатор : 2
Формат : AC-3
Формат/Информация : Audio Coding 3
Расширение режима : CM (complete main)
Параметр Endianness формата : Big
Идентификатор кодека : A_AC3
Продолжительность : 1 ч. 51 м.
Вид битрейта : Постоянный
Битрейт : 384 Кбит/сек
Каналы : 6 каналов
Расположение каналов : Front: L C R, Side: L R, LFE
Частота : 48,0 КГц
Битовая глубина : 16 бит
Метод сжатия : С потерями
Размер потока : 307 Мбайт (3%)
Заголовок : DUB
Язык : Russian
Default : Да
Forced : Нет
Аудио #2
Идентификатор : 3
Формат : DTS
Формат/Информация : Digital Theater Systems
Идентификатор кодека : A_DTS
Продолжительность : 1 ч. 51 м.
Вид битрейта : Постоянный
Битрейт : 1510 Кбит/сек
Каналы : 6 каналов
Расположение каналов : Front: L C R, Side: L R, LFE
Частота : 48,0 КГц
Битовая глубина : 24 бит
Метод сжатия : С потерями
Размер потока : 1,18 Гбайт (13%)
Заголовок : Original
Язык : English
Default : Нет
Forced : Нет
Текст
Идентификатор : 4
Формат : UTF-8
Идентификатор кодека : S_TEXT/UTF8
Идентификатор кодека/Информация : UTF-8 Plain Text
Заголовок : Original
Язык : English
Default : Нет
Forced : Нет
Меню
00:00:00.000 : en:00:00:00.000
00:06:18.086 : en:00:06:18.086
00:14:02.717 : en:00:14:02.717
00:21:29.747 : en:00:21:29.747
00:29:44.700 : en:00:29:44.700
00:34:28.984 : en:00:34:28.984
00:42:36.179 : en:00:42:36.179
00:49:18.831 : en:00:49:18.831
00:56:31.638 : en:00:56:31.638
01:00:53.108 : en:01:00:53.108
01:10:01.572 : en:01:10:01.572
01:18:55.272 : en:01:18:55.272
01:24:05.374 : en:01:24:05.374
01:31:21.559 : en:01:31:21.559
01:38:40.540 : en:01:38:40.540
01:45:56.600 : en:01:45:56.600

Скриншоты

Other forum [Profile] [PM]
Display posts from previous:    
Reply to topic

The time now is: Today 02:03

All times are GMT + 3 Hours



You cannot post new topics in this forum
You cannot reply to topics in this forum
You cannot edit your posts in this forum
You cannot delete your posts in this forum
You cannot vote in polls in this forum
You cannot attach files in this forum
You cannot download files in this forum