Today is a free download without charge Download

Честь самурая ( Надежда Якушева ) (2012, Детектив, Драма, Криминал ) WEB-DLRip [H.264/1080p-LQ]

Reply to topic
 
Author
Message

Витек1 ®

Gender:

Longevity: 8 years 8 months

Posts: 451

Location: Житомир

Торрент-статистика

Post 01-Jun-2013 12:30

[Quote]

Честь самурая - Русское название: Честь самурая
Год выпуска: 2012
Производство: Россия / Триикс Медиа
Жанр: Детектив, Драма, Криминал
Дата российской премьеры: 5 октября 2012
Режиссер: Надежда Якушева
Продюсер: Евгений Дятлов, Валерия Сухачева, Дмитрий Луговкин, Юлия Нижельская, Александр Половцев, Олег Андреев, Михаил Лучко, Вероника Норина, Борис Чердынцев, Александр Иванов (II), Алексей Федотов, Николай Иванов (VI), Владимир Норенко, Геннадий Макоев
Актеры: Евгений Дятлов, Валерия Сухачева, Дмитрий Луговкин, Юлия Нижельская, Александр Половцев, Олег Андреев, Михаил Лучко, Вероника Норина, Борис Чердынцев, Александр Иванов (II), Алексей Федотов, Николай Иванов (VI), Владимир Норенко, Геннадий Макоев
Описание фильма:
Старший оперуполномоченный Дымов за свое увлечение восточными единоборствами и восточной философией получил в отделе прозвище Самурай. Коллеги ценят капитана, а от женщин у Дымова просто отбоя нет. Однако по какой-то причине Дымов не спешит связывать свою жизнь с одной-единственной. С поклонницами капитан держится весьма прохладно. У капитана была жена, которая погибла. Дочь всё время жила с бабушкой в Москве. Но однажды... К капитану Дымову из Москвы приезжает единственная дочь Полина. Офицер полиции, привыкший общаться с суровыми коллегами по работе и преступниками, с трудом находит общий язык с повзрослевшей дочерью. Особенно сложно Дымову приходится, когда он узнает, что Полина собирается замуж за Юрия, связанного с группировкой Александра Дерябина, который подозревается в двойном убийстве. И это убийство расследует капитан Дымов. Полину похищают и требуют большой выкуп. На ее поиски бросаются жених-бандит и отец-полицейский.

Продолжительность: 01:31:37
Качество видео: WEB-DL 1080р
Видеокодек: MPEG-4 AVC/H.264
Битрейт видео: ~5000 Кбит/с
Размер кадра: 1920x1080
Аудиокодек: AC3, 2 ch
Битрейт аудио: 192 Кбит/с

MediaInfo:

Общее
Уникальный идентификатор : 242411330313196662728563504947363750215 (0xB65EB9577798576DB546CBE0BAEAA147)
Полное имя : Chest.Samuraja.2012.WEB-DL.1080p.mkv
Формат : Matroska
Версия формата : Version 4 / Version 2
Размер файла : 3,32 Гбайт
Продолжительность : 1 ч. 31 м.
Общий поток : 5184 Кбит/сек
Дата кодирования : UTC 2013-04-27 09:05:42
Программа кодирования : mkvmerge v6.1.0 ('Old Devil') built on Apr 20 2013 10:07:04
Библиотека кодирования : libebml v1.3.0 + libmatroska v1.4.0
Видео
Идентификатор : 2
Формат : AVC
Формат/Информация : Advanced Video Codec
Профиль формата : [url=mailto:[email protected]][email protected][/url]
Параметр CABAC формата : Да
Параметр ReFrames формата : 6 кадров
Идентификатор кодека : V_MPEG4/ISO/AVC
Продолжительность : 1 ч. 31 м.
Битрейт : 5000 Кбит/сек
Ширина : 1920 пикселей
Высота : 1080 пикселей
Соотношение сторон : 16:9
Режим частоты кадров : Постоянный
Частота кадров : 25,000 кадров/сек
Цветовое пространство : YUV
Субдискретизация насыщенности : 4:2:0
Битовая глубина : 8 бит
Тип развёртки : Прогрессивная
Бит/(Пиксели*Кадры) : 0.096
Размер потока : 3,13 Гбайт (94%)
Библиотека кодирования : x264 core 120
Настройки программы : cabac=1 / ref=6 / deblock=1:0:0 / analyse=0x3:0x133 / me=hex / subme=9 / psy=1 / psy_rd=1.00:0.00 / mixed_ref=1 / me_range=16 / chroma_me=1 / trellis=1 / 8x8dct=1 / cqm=0 / deadzone=21,11 / fast_pskip=1 / chroma_qp_offset=-2 / threads=18 / sliced_threads=0 / nr=0 / decimate=1 / interlaced=0 / bluray_compat=0 / constrained_intra=0 / bframes=3 / b_pyramid=0 / b_adapt=1 / b_bias=0 / direct=3 / weightb=1 / open_gop=0 / weightp=2 / keyint=25 / keyint_min=13 / scenecut=40 / intra_refresh=0 / rc_lookahead=25 / rc=abr / mbtree=1 / bitrate=5000 / ratetol=1.0 / qcomp=0.60 / qpmin=3 / qpmax=69 / qpstep=4 / ip_ratio=1.40 / aq=1:1.00
Язык : Russian
Default : Да
Forced : Нет
Основные цвета : BT.709
Характеристики трансфера : BT.709
Коэффициенты матрицы : BT.709
Аудио
Идентификатор : 1
Формат : AC-3
Формат/Информация : Audio Coding 3
Расширение режима : CM (complete main)
Параметр Endianness формата : Big
Идентификатор кодека : A_AC3
Продолжительность : 1 ч. 31 м.
Вид битрейта : Постоянный
Битрейт : 192 Кбит/сек
Каналы : 2 канала
Расположение каналов : Front: L R
Частота : 48,0 КГц
Битовая глубина : 16 бит
Метод сжатия : С потерями
Размер потока : 126 Мбайт (4%)
Default : Да
Forced : Нет
Скриншоты:
       
       

"Скачал сам - дай скачать другому!"

_________________
Скачал сам, дай скачать другому!!!Не забудь сказать -
Other forum [Profile] [PM]

Dracula

Longevity: 7 years 11 months

Posts: 11005

Торрент-статистика

Post 06-Jun-2013 20:55 (after 5 days)

Топик был перенесен из форума Наше кино (DVD) в форум Наше кино (HD Video)


RUGUI
 
Display posts from previous:    
Reply to topic

The time now is: Today 15:46

All times are GMT + 3 Hours



You cannot post new topics in this forum
You cannot reply to topics in this forum
You cannot edit your posts in this forum
You cannot delete your posts in this forum
You cannot vote in polls in this forum
You cannot attach files in this forum
You cannot download files in this forum