Today is a free download without charge Download

Добро пожаловать, или Посторонним вход воспрещен (Элем Климов) (Комедия, Семейный, 1964) BDRip [H.264]

Reply to topic
 
Author
Message

Omen ®

Longevity: 8 years 7 months

Posts: 181087

Торрент-статистика

Post 01-Jun-2013 08:20

[Quote]

Добро пожаловать, или Посторонним вход воспрещен - Название: Добро пожаловать, или Посторонним вход воспрещен
Страна: СССР
Студия: Мосфильм
Год выпуска: 1964
Жанр: Комедия, Семейный
Описание фильма:
Пионер Костя Иночкин, будучи в пионерском лагере, переплыл реку и оказался на запретной для посещений территории, за что и был изгнан его начальником товарищем Дыниным. Не желая доводить бабушку до инфаркта своим досрочным прибытием, мальчик тайно возвращается в лагерь, где пионеры так же тайно содержат его и предпринимают все меры, чтобы не состоялся родительский день. Ведь именно в этот день Костина бабушка заявится в лагерь…
Режиссер: Элем Климов
Актеры: Виктор Косых, Евгений Евстигнеев, Арина Алейникова, Илья Рутберг, Татьяна Барышева, Лидия Смирнова, Алексей Смирнов, Нина Шацкая, Лидия Волкова, Александр Байков
Продолжительность: 01:13:10
Перевод: Не требуется
Релиз группа: "Encoded by Bugman"
Язык субтитров: Русский
Вид субтитров: Вшитые (отключаемые)

Дата мировой премьеры: 9 октября 1964
Дата выхода на DVD: 11 января 2011, «Парадиз Медиа»
Дата выхода на Blu-Ray: 21 мая 2013, «Lizard Cinema Trade»
Видеокодек: MPEG-4 AVC/H.264
Битрейт видео: ~6 025 Kbps
Размер кадра: 932x680
Аудио: AC3, 6 ch 448 Кбит/с
Качество видео: BDRip

MediaInfo и x264 2-nd pass

x264 2-nd pass

--[Information] [22.05.2013 5:03:02] Encoding started
--[Information] [22.05.2013 18:02:20] Standard output stream
-[NoImage] avs [info]: 932x680p 1:1 @ 24000/1001 fps (cfr)
-[NoImage] x264 [info]: using SAR=1/1
-[NoImage] x264 [info]: using cpu capabilities: MMX2 SSE2Fast SSSE3 SSE4.1 Cache64
-[NoImage] x264 [info]: profile High, level 4.1
-[NoImage]
-[NoImage] x264 [info]: frame I:609 Avg QP:16.08 size:157518
-[NoImage] x264 [info]: frame P:30435 Avg QP:18.77 size: 61312
-[NoImage] x264 [info]: frame B:74221 Avg QP:21.46 size: 18121
-[NoImage] x264 [info]: consecutive B-frames: 7.7% 1.9% 9.2% 42.3% 22.0% 16.4% 0.4% 0.1%
-[NoImage] x264 [info]: mb I I16..4: 5.3% 58.0% 36.8%
-[NoImage] x264 [info]: mb P I16..4: 0.1% 8.6% 2.9% P16..4: 38.7% 23.5% 21.4% 2.3% 0.9% skip: 1.6%
-[NoImage] x264 [info]: mb B I16..4: 0.0% 1.7% 1.0% B16..8: 35.4% 11.8% 5.4% direct: 8.8% skip:35.9% L0:35.1% L1:41.5% BI:23.5%
-[NoImage] x264 [info]: 8x8 transform intra:68.6% inter:50.7%
-[NoImage] x264 [info]: direct mvs spatial:99.4% temporal:0.6%
-[NoImage] x264 [info]: coded y,uvDC,uvAC intra: 94.4% 11.5% 8.7% inter: 44.0% 0.4% 0.2%
-[NoImage] x264 [info]: i16 v,h,dc,p: 12% 15% 29% 44%
-[NoImage] x264 [info]: i8 v,h,dc,ddl,ddr,vr,hd,vl,hu: 13% 12% 8% 8% 12% 12% 12% 10% 12%
-[NoImage] x264 [info]: i4 v,h,dc,ddl,ddr,vr,hd,vl,hu: 9% 29% 4% 7% 11% 10% 10% 9% 11%
-[NoImage] x264 [info]: i8c dc,h,v,p: 56% 42% 2% 0%
-[NoImage] x264 [info]: Weighted P-Frames: Y:11.2% UV:0.0%
-[NoImage] x264 [info]: ref P L0: 51.7% 15.1% 16.8% 5.5% 5.6% 4.0% 1.3% 0.1%
-[NoImage] x264 [info]: ref B L0: 87.2% 7.5% 2.9% 1.5% 0.9%
-[NoImage] x264 [info]: ref B L1: 97.8% 2.2%
-[NoImage] x264 [info]: kb/s:6025.75
-[NoImage] encoded 105265 frames, 2.25 fps, 6025.75 kb/s
--[Information] [22.05.2013 18:02:20] Standard error stream
--[Information] Final statistics
General
Complete name : Добро пожаловать, или Посторонним вход воспрещен (1964).mkv
Format : Matroska
Format version : Version 2
File size : 3.31 GiB
Duration : 1h 13mn
Overall bit rate : 6 476 Kbps
Movie name : Добро пожаловать, или Посторонним вход воспрещен (1964) by Bugman
Encoded date : UTC 2013-05-22 15:32:55
Writing application : mkvmerge v4.0.0 ('The Stars were mine') сборка от Jun 6 2010 16:18:42
Writing library : libebml v1.0.0 + libmatroska v1.0.0
Attachment : Yes / Yes
Video
ID : 1
Format : AVC
Format/Info : Advanced Video Codec
Format profile : [url=mailto:[email protected]][email protected][/url]
Format settings, CABAC : Yes
Format settings, ReFrames : 6 frames
Codec ID : V_MPEG4/ISO/AVC
Duration : 1h 13mn
Bit rate : 6 025 Kbps
Width : 932 pixels
Height : 680 pixels
Display aspect ratio : 1.371
Frame rate : 23.976 fps
Color space : YUV
Chroma subsampling : 4:2:0
Bit depth : 8 bits
Scan type : Progressive
Bits/(Pixel*Frame) : 0.397
Stream size : 3.02 GiB (91%)
Title : x264 932x680; 1.37:1; 23.976 fps; 6025 Kbps; 0.397 bpp
Writing library : x264 core 130 r2273 b3065e6
Encoding settings : cabac=1 / ref=6 / deblock=1:-1:-1 / analyse=0x3:0x133 / me=umh / subme=9 / psy=1 / psy_rd=1.00:0.06 / mixed_ref=1 / me_range=32 / chroma_me=1 / trellis=2 / 8x8dct=1 / cqm=0 / deadzone=21,11 / fast_pskip=0 / chroma_qp_offset=-3 / threads=3 / lookahead_threads=1 / sliced_threads=0 / nr=0 / decimate=0 / interlaced=0 / bluray_compat=0 / constrained_intra=0 / bframes=7 / b_pyramid=2 / b_adapt=2 / b_bias=0 / direct=3 / weightb=1 / open_gop=0 / weightp=2 / keyint=240 / keyint_min=23 / scenecut=40 / intra_refresh=0 / rc_lookahead=60 / rc=2pass / mbtree=1 / bitrate=6025 / ratetol=1.0 / qcomp=0.70 / qpmin=0 / qpmax=69 / qpstep=4 / cplxblur=20.0 / qblur=0.5 / ip_ratio=1.40 / aq=1:0.80
Language : Russian
Audio
ID : 2
Format : AC-3
Format/Info : Audio Coding 3
Mode extension : CM (complete main)
Codec ID : A_AC3
Duration : 1h 13mn
Bit rate mode : Constant
Bit rate : 448 Kbps
Channel(s) : 6 channels
Channel positions : Front: L C R, Side: L R, LFE
Sampling rate : 48.0 KHz
Bit depth : 16 bits
Compression mode : Lossy
Stream size : 234 MiB (7%)
Title : AC3; 48.0 KHz; 448 Kbps; 6 channels; Front: L C R, Side: L R, LFE
Language : Russian
Text
ID : 3
Format : UTF-8
Codec ID : S_TEXT/UTF8
Codec ID/Info : UTF-8 Plain Text
Title : Rus Full
Language : Russian
Menu
00:00:00.000 : ru:Chapter 00
00:03:39.636 : ru:Chapter 01
00:07:41.252 : ru:Chapter 02
00:13:04.617 : ru:Chapter 03
00:16:49.591 : ru:Chapter 04
00:23:13.517 : ru:Chapter 05
00:26:13.488 : ru:Chapter 06
00:33:42.437 : ru:Chapter 07
00:38:29.348 : ru:Chapter 08
00:42:10.778 : ru:Chapter 09
00:46:03.093 : ru:Chapter 10
00:49:15.327 : ru:Chapter 11
00:57:17.350 : ru:Chapter 12
01:01:05.662 : ru:Chapter 13
01:05:37.725 : ru:Chapter 14

Рецензия, отзыв о фильме

zombion
Моя любимая классика забытого вами великого кинематографа. 241 часть.
Когда я был маленьким, то у меня тоже была бабушка!
Добро пожаловать, или Посторонним вход воспрещен (я люблю этот фильм)
А вот про этот шедевр советского кинематографа даже рассказывать как-то неудобно. Если вы родились в России, то вы когда-нибудь обязательно наткнетесь на этот фильм. Этому фильму уже много лет, но смотреть его всегда будет очень интересно и очень весело, потому что этот фильм бессмертный. Режиссер Элем Климов просто делал свою дипломную режиссерскую работу, а в результате снял нетленную классику, которую любят даже в Америке.
Про сюжет говорить не буду, потому что все и так его прекрасно знают. Костя Иночкин вместе со своими друзьями «воюет» с начальником детского лагеря — товарищем Дыниным. Я очень долго думал, почему этот фильм даже сейчас сильно любят. Конечно у фильма очень сильный актерский состав. Евгений Евстигнеев — гениальный советский актер! А еще в фильме играют молодые ребята, а лучше детей актеров нет.
Но дело тут даже не в актерах, а в том, что режиссер Элем Климов сделал очень добрую ауру в фильме. Его фильм очень солнечный и очень веселый. Когда включаешь этот фильм, то на лице сразу появляется улыбка, потому что фильм делает очень хорошо внутри, а это уже говорит о гениальности произведения. Вы можете набрать гениальный актерский состав и снять умопомрачительные сцены, но если вы не сможете вдохнуть любовь в ваш фильм, то он никогда не сможет пройти проверку временем.
Фильм Элема Климова прошел уже давно все проверки. Его фильм разобрали на цитаты. Ему ставят максимальные оценки и правильно кстати делают. Кинематограф меняется, но настоящие фильмы всегда будут жить в нем, и гореть яркими лучами света. Смотрите солнечные фильмы, такие как этот. Безоговорочный шедевр.
Спасибо.
P.S.
Лучшая сцена в фильме — А что это вы тут делаете?
10 из 10
Скриншоты:
     
       
Other forum [Profile] [PM]
Display posts from previous:    
Reply to topic

The time now is: Today 16:12

All times are GMT + 3 Hours



You cannot post new topics in this forum
You cannot reply to topics in this forum
You cannot edit your posts in this forum
You cannot delete your posts in this forum
You cannot vote in polls in this forum
You cannot attach files in this forum
You cannot download files in this forum