Today is a free download without charge Download

Сказки Роу (1938-1975) [H.264] DVDRip [По щучьему веленью, Василиса Прекрасная, Новые похождения Кота в сапогах, Марья-искусница, Королевство кривых зеркал, Морозко, Огонь, вода и медные трубы, Варвара-краса, длинная коса, Финист-ясный сокол]

Reply to topic
 
Author
Message

Omen ®

Longevity: 8 years 7 months

Posts: 181087

Торрент-статистика

Post 01-Jun-2013 08:16

[Quote]

Сказки Роу (1938-1975) - Русское название: Сказки Роу
Год выпуска: 1938-1975
Жанр: Сказки
В собрание вошли :
1.По щучьему веленью (1938 год)
2.Василиса Прекрасная (1939 год)
3.Новые похождения Кота в сапогах (1957 год)
4.Марья-искусница (1959 год)
5.Королевство кривых зеркал (1963 год)
6.Морозко (1964 год)
7.Огонь, вода и медные трубы (1967 год)
8.Варвара-краса, длинная коса (1969 год)
9.Финист-ясный сокол (1975 год)
Описание:
Наши старые, добрые сказки. Которые поднимут настроение не только детям, но и их родителям.
Продолжительность: 00:56:12, 01:10:08, 01:23:25, 01:14:55, 01:14:57, 01:19:52, 01:20:53, 01:20:18, 01:14:50
Видеокодек: MPEG-4 AVC/[H.264]
Битрейт видео: 3287, 2339, 1959, 2225, 2224, 2063, 2030, 2050, 2228 Кбит/с
Размер кадра: [email protected], [email protected], [email protected], [email protected], [email protected], [email protected], 688х[email protected], [email protected], 704х[email protected]
Качество видео: DVDRip-AVC
Аудиокодек: AC3
Битрейт аудио: 192, 448, 384 Кбит/сТехнические данные и скриншоты по каждому фильму смотрите ниже

По щучьему велению

MediaInfo

Общее
Уникальный идентификатор : 48220165374397851686531297089388241115 (0x2446DDB4EA1AB5C46CFA5721C40760DB)
Полное имя : D:\Razdachi\Sbornik\Skazki.Rou.1938-1975.x264.DVDRip(AVC).BEARGRIZLI\Po.cshuchemu.veleniyu.1938.x264.DVDRip(AVC).BEARGRIZLI.mkv
Формат : Matroska
Размер файла : 1,37 Гбайт
Продолжительность : 56 м.
Общий поток : 3485 Кбит/сек
Программа кодирования : HandBrake 0.9.5
Библиотека кодирования : libmkv 0.6.4.1
Видео
Идентификатор : 1
Формат : AVC
Формат/Информация : Advanced Video Codec
Профиль формата : [url=mailto:[email protected]][email protected][/url]
Параметр CABAC формата : Да
Параметр ReFrames формата : 4 кадры
Идентификатор кодека : V_MPEG4/ISO/AVC
Продолжительность : 56 м.
Битрейт : 3287 Кбит/сек
Ширина : 672 пикс.
Высота : 576 пикс.
Соотношение сторон : 1,281
Режим частоты кадров : Переменный
Частота кадров : 25,000 кадр/сек
Цветовое пространство : YUV
Подвыборка цветности : 4:2:0
Битовая глубина : 8 бит
Тип развёртки : Прогрессивная
Бит/(Пиксели*Кадры) : 0.340
Размер потока : 1,27 Гбайт (93%)
Библиотека кодирования : x264 core 112
Настройки программы : cabac=1 / ref=2 / deblock=1:0:0 / analyse=0x1:0x111 / me=hex / subme=6 / psy=1 / psy_rd=1.00:0.00 / mixed_ref=0 / me_range=16 / chroma_me=1 / trellis=0 / 8x8dct=0 / cqm=0 / deadzone=21,11 / fast_pskip=1 / chroma_qp_offset=-2 / threads=6 / sliced_threads=0 / nr=0 / decimate=1 / interlaced=0 / constrained_intra=0 / bframes=2 / b_pyramid=2 / b_adapt=1 / b_bias=0 / direct=1 / weightb=0 / open_gop=0 / weightp=2 / keyint=250 / keyint_min=25 / scenecut=40 / intra_refresh=0 / rc_lookahead=40 / rc=2pass / mbtree=1 / bitrate=3287 / ratetol=1.0 / qcomp=0.60 / qpmin=3 / qpmax=51 / qpstep=4 / cplxblur=20.0 / qblur=0.5 / ip_ratio=1.40 / aq=1:1.00
Язык : English
Основные цвета : BT.601-6 525, BT.1358 525, BT.1700 NTSC, SMPTE 170M
Характеристики трансфера : BT.709-5, BT.1361
Коэффициенты матрицы : BT.601-6 525, BT.1358 525, BT.1700 NTSC, SMPTE 170M
Аудио
Идентификатор : 2
Формат : AC-3
Формат/Информация : Audio Coding 3
Расширение режима : CM (complete main)
Идентификатор кодека : A_AC3
Продолжительность : 56 м.
Вид битрейта : Постоянный
Битрейт : 192 Кбит/сек
Канал(ы) : 2 канала(ов)
Расположение каналов : Front: L R
Частота : 48,0 КГц
Битовая глубина : 16 бит
Метод сжатия : С потерями
Размер потока : 77,2 Мбайт (6%)
Язык : Russian
Русское название: По щучьему велению
Жанр: Сказка
Год выхода: 1938
Выпущено: СССР
Режиссер: Александр Роу
В ролях: Петр Савин, Георгий Милляр, Александр Жуков, Андрей Файт, Иван Москвин, Владимир Лепко, Лидия Рюмина, Мария Кравчуновская, Лев Потемкин, Татьяна Струкова
Описание: Давным-давно в каком-то царстве, в каком-то древнем государстве жил был Емеля. Бедно жил. С работой всякою дружил. Гнул спину до седьмого пота, а всё бедняк. Пошёл Емеля воды набрать в речке и зачерпнул в реке щуку вместе с водой...
Качество: DVDRip - AVC
Видео: [email protected], MPEG-4 AVC, 3287kbps
Аудио: AC3, 192kbps, 2ch
Продолжительность: 00:56:12

       

Василиса Прекрасная

MediaInfo

Общее
Уникальный идентификатор : 192662745676956236664631072282779312044 (0x90F17EBF503CD82BBF6118134D87DFAC)
Полное имя : D:\Razdachi\Sbornik\Skazki.Rou.1938-1975.x264.DVDRip(AVC).BEARGRIZLI\Vasilisa.Prekrasnaja.1939.x264.DVDRip(AVC).BEARGRIZLI.mkv
Формат : Matroska
Размер файла : 1,37 Гбайт
Продолжительность : 1 ч. 10 м.
Общий поток : 2788 Кбит/сек
Дата кодирования : UTC 2012-01-01 11:22:02
Программа кодирования : mkvmerge v4.2.0 ('No Talking') сборка от Jul 28 2010 18:38:23
Библиотека кодирования : libebml v1.0.0 + libmatroska v1.0.0
Видео
Идентификатор : 1
Формат : AVC
Формат/Информация : Advanced Video Codec
Профиль формата : [url=mailto:[email protected]][email protected][/url]
Параметр CABAC формата : Да
Параметр ReFrames формата : 4 кадры
Режим смешивания : Header stripping
Идентификатор кодека : V_MPEG4/ISO/AVC
Продолжительность : 1 ч. 10 м.
Битрейт : 2339 Кбит/сек
Ширина : 720 пикс.
Высота : 576 пикс.
Соотношение сторон : 4:3
Режим частоты кадров : Переменный
Частота кадров : 25,000 кадр/сек
Стандарт вещания : PAL
Цветовое пространство : YUV
Подвыборка цветности : 4:2:0
Битовая глубина : 8 бит
Тип развёртки : Прогрессивная
Бит/(Пиксели*Кадры) : 0.226
Размер потока : 1,12 Гбайт (82%)
Библиотека кодирования : x264 core 112
Настройки программы : cabac=1 / ref=2 / deblock=1:0:0 / analyse=0x1:0x111 / me=hex / subme=6 / psy=1 / psy_rd=1.00:0.00 / mixed_ref=0 / me_range=16 / chroma_me=1 / trellis=0 / 8x8dct=0 / cqm=0 / deadzone=21,11 / fast_pskip=1 / chroma_qp_offset=-2 / threads=6 / sliced_threads=0 / nr=0 / decimate=1 / interlaced=0 / constrained_intra=0 / bframes=2 / b_pyramid=2 / b_adapt=1 / b_bias=0 / direct=1 / weightb=0 / open_gop=0 / weightp=2 / keyint=250 / keyint_min=25 / scenecut=40 / intra_refresh=0 / rc_lookahead=40 / rc=2pass / mbtree=1 / bitrate=2339 / ratetol=1.0 / qcomp=0.60 / qpmin=3 / qpmax=51 / qpstep=4 / cplxblur=20.0 / qblur=0.5 / ip_ratio=1.40 / aq=1:1.00
Язык : English
Основные цвета : BT.601-6 525, BT.1358 525, BT.1700 NTSC, SMPTE 170M
Характеристики трансфера : BT.709-5, BT.1361
Коэффициенты матрицы : BT.601-6 525, BT.1358 525, BT.1700 NTSC, SMPTE 170M
Аудио
Идентификатор : 2
Формат : AC-3
Формат/Информация : Audio Coding 3
Расширение режима : CM (complete main)
Режим смешивания : Header stripping
Идентификатор кодека : A_AC3
Продолжительность : 1 ч. 10 м.
Вид битрейта : Постоянный
Битрейт : 448 Кбит/сек
Канал(ы) : 6 канала(ов)
Расположение каналов : Front: L C R, Side: L R, LFE
Частота : 48,0 КГц
Битовая глубина : 16 бит
Метод сжатия : С потерями
Размер потока : 225 Мбайт (16%)
Язык : Russian
Русское название: Василиса Прекрасная
Жанр: Сказка
Год выхода: 1939
Выпущено: СССР
Режиссер: Александр Роу
В ролях: Георгий Милляр, Сергей Столяров, Лев Потёмкин, Никита Кондратьев, Валентина Сорогожская, Ирина Зарубина, Лидия Сухаревская, Татьяна Барышева, М. Скавронская, Мария Барабанова
Описание: Задумал отец женить трех своих сыновей. Вышли братья в чистое поле и пустили стрелы в разные стороны. Стрела старшего сына упала на боярский двор, к боярской дочери, стрела среднего сына — упала на двор купеческой, а стрела Ивана, младшего сына упала на болото к лягушке-квакушке…
Качество: DVDRip - AVC
Видео: [email protected], MPEG-4 AVC, 2339kbps
Аудио: AC3, 448kbps, 6ch
Продолжительность: 01:10:08

       

Новые похождения кота в сапогах

MediaInfo

Общее
Уникальный идентификатор : 27133491346726541749699519074190231440 (0x1469B868BAB78960B358D70F686C0790)
Полное имя : D:\Razdachi\Sbornik\Skazki.Rou.1938-1975.x264.DVDRip(AVC).BEARGRIZLI\Novye.pohojdenija.kota.v.sapogah.1958.x264.DVDRip(AVC).BEARGRIZLI.mkv
Формат : Matroska
Размер файла : 1,37 Гбайт
Продолжительность : 1 ч. 23 м.
Общий поток : 2348 Кбит/сек
Программа кодирования : HandBrake 0.9.5
Библиотека кодирования : libmkv 0.6.4.1
Видео
Идентификатор : 1
Формат : AVC
Формат/Информация : Advanced Video Codec
Профиль формата : [url=mailto:[email protected]][email protected][/url]
Параметр CABAC формата : Да
Параметр ReFrames формата : 4 кадры
Идентификатор кодека : V_MPEG4/ISO/AVC
Продолжительность : 1 ч. 23 м.
Битрейт : 1959 Кбит/сек
Ширина : 704 пикс.
Высота : 576 пикс.
Соотношение сторон : 1,299
Режим частоты кадров : Переменный
Частота кадров : 25,000 кадр/сек
Стандарт вещания : PAL
Цветовое пространство : YUV
Подвыборка цветности : 4:2:0
Битовая глубина : 8 бит
Тип развёртки : Прогрессивная
Бит/(Пиксели*Кадры) : 0.193
Размер потока : 1,12 Гбайт (82%)
Библиотека кодирования : x264 core 112
Настройки программы : cabac=1 / ref=2 / deblock=1:0:0 / analyse=0x1:0x111 / me=hex / subme=6 / psy=1 / psy_rd=1.00:0.00 / mixed_ref=0 / me_range=16 / chroma_me=1 / trellis=0 / 8x8dct=0 / cqm=0 / deadzone=21,11 / fast_pskip=1 / chroma_qp_offset=-2 / threads=6 / sliced_threads=0 / nr=0 / decimate=1 / interlaced=0 / constrained_intra=0 / bframes=2 / b_pyramid=2 / b_adapt=1 / b_bias=0 / direct=1 / weightb=0 / open_gop=0 / weightp=2 / keyint=250 / keyint_min=24 / scenecut=40 / intra_refresh=0 / rc_lookahead=40 / rc=2pass / mbtree=1 / bitrate=1959 / ratetol=1.0 / qcomp=0.60 / qpmin=3 / qpmax=51 / qpstep=4 / cplxblur=20.0 / qblur=0.5 / ip_ratio=1.40 / aq=1:1.00
Язык : English
Основные цвета : BT.601-6 525, BT.1358 525, BT.1700 NTSC, SMPTE 170M
Характеристики трансфера : BT.709-5, BT.1361
Коэффициенты матрицы : BT.601-6 525, BT.1358 525, BT.1700 NTSC, SMPTE 170M
Аудио
Идентификатор : 2
Формат : AC-3
Формат/Информация : Audio Coding 3
Расширение режима : CM (complete main)
Идентификатор кодека : A_AC3
Продолжительность : 1 ч. 23 м.
Вид битрейта : Постоянный
Битрейт : 384 Кбит/сек
Канал(ы) : 6 канала(ов)
Расположение каналов : Front: L C R, Side: L R, LFE
Частота : 48,0 КГц
Битовая глубина : 16 бит
Метод сжатия : С потерями
Размер потока : 229 Мбайт (16%)
Язык : Russian
Русское название: Новые похождения кота в сапогах
Жанр: Сказка
Год выхода: 1958
Выпущено: СССР
Режиссер: Александр Роу
В ролях: Мария Барабанова, Анатолий Кубацкий, Вячеслав Жариков, Тамара Носова, Георгий Милляр, Лидия Вертинская, Владимир Володин, Никита Кондратьев, Лев Потемкин
Описание: Вместе с традиционными сказочными персонажами в картине действуют и обычные школьники, участвующие в школьном спектакле по сказке «Кот в сапогах».. Любе приснился сон. Она, дочь шахматного короля, становится жертвой коварного заговора и похищена колдуньей. На ее поиски отправляется сын мельника Ваня и его друг — волшебный кот. Много трудностей пришлось им испытать, пока они не достигли замка колдуньи и не спасли принцессу.
Качество: DVDRip - AVC
Видео: [email protected], MPEG-4 AVC, 1959kbps
Аудио: AC3, 384kbps, 6ch
Продолжительность: 01:23:25

       

Марья-искусница

MediaInfo

Общее
Уникальный идентификатор : 328162424280768257036497088685465056987 (0xF6E1C8B13E0C72FC8753A8BD5FB2B6DB)
Полное имя : D:\Razdachi\Sbornik\Skazki.Rou.1938-1975.x264.DVDRip(AVC).BEARGRIZLI\Marja.iskusnica.1959.x264.DVDRip(AVC).BEARGRIZLI.mkv
Формат : Matroska
Размер файла : 1,37 Гбайт
Продолжительность : 1 ч. 14 м.
Общий поток : 2614 Кбит/сек
Программа кодирования : HandBrake 0.9.5
Библиотека кодирования : libmkv 0.6.4.1
Видео
Идентификатор : 1
Формат : AVC
Формат/Информация : Advanced Video Codec
Профиль формата : [url=mailto:[email protected]][email protected][/url]
Параметр CABAC формата : Да
Параметр ReFrames формата : 4 кадры
Параметры GOP формата : M=2, N=11
Идентификатор кодека : V_MPEG4/ISO/AVC
Продолжительность : 1 ч. 14 м.
Битрейт : 2225 Кбит/сек
Ширина : 704 пикс.
Высота : 576 пикс.
Соотношение сторон : 1,281
Режим частоты кадров : Переменный
Частота кадров : 25,000 кадр/сек
Стандарт вещания : PAL
Цветовое пространство : YUV
Подвыборка цветности : 4:2:0
Битовая глубина : 8 бит
Тип развёртки : Прогрессивная
Бит/(Пиксели*Кадры) : 0.219
Размер потока : 1,14 Гбайт (83%)
Библиотека кодирования : x264 core 112
Настройки программы : cabac=1 / ref=2 / deblock=1:0:0 / analyse=0x1:0x111 / me=hex / subme=6 / psy=1 / psy_rd=1.00:0.00 / mixed_ref=0 / me_range=16 / chroma_me=1 / trellis=0 / 8x8dct=0 / cqm=0 / deadzone=21,11 / fast_pskip=1 / chroma_qp_offset=-2 / threads=6 / sliced_threads=0 / nr=0 / decimate=1 / interlaced=0 / constrained_intra=0 / bframes=2 / b_pyramid=2 / b_adapt=1 / b_bias=0 / direct=1 / weightb=0 / open_gop=0 / weightp=2 / keyint=250 / keyint_min=25 / scenecut=40 / intra_refresh=0 / rc_lookahead=40 / rc=2pass / mbtree=1 / bitrate=2225 / ratetol=1.0 / qcomp=0.60 / qpmin=3 / qpmax=51 / qpstep=4 / cplxblur=20.0 / qblur=0.5 / ip_ratio=1.40 / aq=1:1.00
Язык : English
Основные цвета : BT.601-6 525, BT.1358 525, BT.1700 NTSC, SMPTE 170M
Характеристики трансфера : BT.709-5, BT.1361
Коэффициенты матрицы : BT.601-6 525, BT.1358 525, BT.1700 NTSC, SMPTE 170M
Аудио
Идентификатор : 2
Формат : AC-3
Формат/Информация : Audio Coding 3
Расширение режима : CM (complete main)
Идентификатор кодека : A_AC3
Продолжительность : 1 ч. 14 м.
Вид битрейта : Постоянный
Битрейт : 384 Кбит/сек
Канал(ы) : 6 канала(ов)
Расположение каналов : Front: L C R, Side: L R, LFE
Частота : 48,0 КГц
Битовая глубина : 16 бит
Метод сжатия : С потерями
Размер потока : 206 Мбайт (15%)
Язык : Russian
Русское название: Марья-искусница
Жанр: Сказка
Год выхода: 1959
Выпущено: СССР
Режиссер: Александр Роу
В ролях: Михаил Кузнецов, Нинель Мышкова, Виктор Перевалов, Ольга Хачапуридзе, Анатолий Кубацкий, Георгий Милляр, Вера Алтайская, Александр Хвыля, Никита Кондратьев, Сергей Троицкий, Константин Немоляев, Владимир Пицек, Константин Старостин, Михаил Щербаков, Александр Баранов
Описание: Закончилась у солдата служба, спешит солдат домой. Но по пути в родные места довелось ему сделать еще одно доброе дело: помочь мальчику Иванушке вызволить из плена матушку свою — Марью-Искусницу. Уж как ни старался могущественный и хитрый царь Водокрут совсей своей придворной нечистью, так и не смог побороть солдатскую смекалку и доброе сердце…
Качество: DVDRip - AVC
Видео: [email protected], MPEG-4 AVC, 2225kbps
Аудио : Русский: AAC, 192kbps, 2ch
Продолжительность: 01:14:55

       

Королевство кривых зеркал

MediaInfo

Общее
Уникальный идентификатор : 241638831593891402734270780869583470724 (0xB5C9F236D7E0FCB7311EF21C32768084)
Полное имя : D:\Razdachi\Sbornik\Skazki.Rou.1938-1975.x264.DVDRip(AVC).BEARGRIZLI\Korolevstvo.krivyh.zerkal.1963.x264.DVDRip(AVC).BEARGRIZLI.mkv
Формат : Matroska
Размер файла : 1,37 Гбайт
Продолжительность : 1 ч. 14 м.
Общий поток : 2613 Кбит/сек
Программа кодирования : HandBrake 0.9.5
Библиотека кодирования : libmkv 0.6.4.1
Видео
Идентификатор : 1
Формат : AVC
Формат/Информация : Advanced Video Codec
Профиль формата : [url=mailto:[email protected]][email protected][/url]
Параметр CABAC формата : Да
Параметр ReFrames формата : 4 кадры
Идентификатор кодека : V_MPEG4/ISO/AVC
Продолжительность : 1 ч. 14 м.
Битрейт : 2224 Кбит/сек
Ширина : 720 пикс.
Высота : 576 пикс.
Соотношение сторон : 4:3
Режим частоты кадров : Переменный
Частота кадров : 25,000 кадр/сек
Стандарт вещания : PAL
Цветовое пространство : YUV
Подвыборка цветности : 4:2:0
Битовая глубина : 8 бит
Тип развёртки : Прогрессивная
Бит/(Пиксели*Кадры) : 0.215
Размер потока : 1,14 Гбайт (83%)
Библиотека кодирования : x264 core 112
Настройки программы : cabac=1 / ref=2 / deblock=1:0:0 / analyse=0x1:0x111 / me=hex / subme=6 / psy=1 / psy_rd=1.00:0.00 / mixed_ref=0 / me_range=16 / chroma_me=1 / trellis=0 / 8x8dct=0 / cqm=0 / deadzone=21,11 / fast_pskip=1 / chroma_qp_offset=-2 / threads=6 / sliced_threads=0 / nr=0 / decimate=1 / interlaced=0 / constrained_intra=0 / bframes=2 / b_pyramid=2 / b_adapt=1 / b_bias=0 / direct=1 / weightb=0 / open_gop=0 / weightp=2 / keyint=250 / keyint_min=25 / scenecut=40 / intra_refresh=0 / rc_lookahead=40 / rc=2pass / mbtree=1 / bitrate=2224 / ratetol=1.0 / qcomp=0.60 / qpmin=3 / qpmax=51 / qpstep=4 / cplxblur=20.0 / qblur=0.5 / ip_ratio=1.40 / aq=1:1.00
Язык : English
Основные цвета : BT.601-6 525, BT.1358 525, BT.1700 NTSC, SMPTE 170M
Характеристики трансфера : BT.709-5, BT.1361
Коэффициенты матрицы : BT.601-6 525, BT.1358 525, BT.1700 NTSC, SMPTE 170M
Аудио
Идентификатор : 2
Формат : AC-3
Формат/Информация : Audio Coding 3
Расширение режима : CM (complete main)
Идентификатор кодека : A_AC3
Продолжительность : 1 ч. 14 м.
Вид битрейта : Постоянный
Битрейт : 384 Кбит/сек
Канал(ы) : 6 канала(ов)
Расположение каналов : Front: L C R, Side: L R, LFE
Частота : 48,0 КГц
Битовая глубина : 16 бит
Метод сжатия : С потерями
Размер потока : 206 Мбайт (15%)
Язык : Russian
Русское название: Королевство кривых зеркал
Жанр: Сказка
Год выхода: 1963
Выпущено: СССР
Режиссер: Александр Роу
В ролях: Оля Юкина, Таня Юкина, Татьяна Барышева, Андрей Стапран, Иван Кузнецов, Тамара Носова, Анатолий Кубацкий, Аркадий Цинман, Андрей Файт, Лидия Вертинская, Георгий Милляр, Павел Павленко, Александр Хвыля, Валентин Брылеев, Вера Алтайская
Описание: Однажды школьница Оля взглянула в самое обычное зеркало, которое висело дома в прихожей, и неожиданно отправилась путешествовать в волшебную зазеркальную страну вместе со своим отражением — озорной девочкой Яло. Вдвоем им удается вызволить из тюрьмы мальчика Гурда и разрушить злые чары кривых зеркал…
Качество: DVDRip - AVC
Видео: [email protected], MPEG-4 AVC, 2224kbps
Аудио: AC3, 384kbps, 6ch
Продолжительность: 01:14:57

       

Морозко

MediaInfo

Общее
Уникальный идентификатор : 120653048067186122061938312832644534077 (0x5AC4EE8B748CE8800C14C02D730BCF3D)
Полное имя : D:\Razdachi\Sbornik\Skazki.Rou.1938-1975.x264.DVDRip(AVC).BEARGRIZLI\Morozko.1964.x264.DVDRip(AVC).BEARGRIZLI.mkv
Формат : Matroska
Размер файла : 1,35 Гбайт
Продолжительность : 1 ч. 18 м.
Общий поток : 2452 Кбит/сек
Программа кодирования : HandBrake 0.9.5
Библиотека кодирования : libmkv 0.6.4.1
Видео
Идентификатор : 1
Формат : AVC
Формат/Информация : Advanced Video Codec
Профиль формата : [url=mailto:[email protected]][email protected][/url]
Параметр CABAC формата : Да
Параметр ReFrames формата : 4 кадры
Идентификатор кодека : V_MPEG4/ISO/AVC
Продолжительность : 1 ч. 18 м.
Битрейт : 2063 Кбит/сек
Ширина : 720 пикс.
Высота : 576 пикс.
Соотношение сторон : 4:3
Режим частоты кадров : Переменный
Частота кадров : 25,000 кадр/сек
Стандарт вещания : PAL
Цветовое пространство : YUV
Подвыборка цветности : 4:2:0
Битовая глубина : 8 бит
Тип развёртки : Прогрессивная
Бит/(Пиксели*Кадры) : 0.199
Размер потока : 1,11 Гбайт (82%)
Библиотека кодирования : x264 core 112
Настройки программы : cabac=1 / ref=2 / deblock=1:0:0 / analyse=0x1:0x111 / me=hex / subme=6 / psy=1 / psy_rd=1.00:0.00 / mixed_ref=0 / me_range=16 / chroma_me=1 / trellis=0 / 8x8dct=0 / cqm=0 / deadzone=21,11 / fast_pskip=1 / chroma_qp_offset=-2 / threads=6 / sliced_threads=0 / nr=0 / decimate=1 / interlaced=0 / constrained_intra=0 / bframes=2 / b_pyramid=2 / b_adapt=1 / b_bias=0 / direct=1 / weightb=0 / open_gop=0 / weightp=2 / keyint=250 / keyint_min=25 / scenecut=40 / intra_refresh=0 / rc_lookahead=40 / rc=2pass / mbtree=1 / bitrate=2063 / ratetol=1.0 / qcomp=0.60 / qpmin=3 / qpmax=51 / qpstep=4 / cplxblur=20.0 / qblur=0.5 / ip_ratio=1.40 / aq=1:1.00
Язык : English
Основные цвета : BT.601-6 525, BT.1358 525, BT.1700 NTSC, SMPTE 170M
Характеристики трансфера : BT.709-5, BT.1361
Коэффициенты матрицы : BT.601-6 525, BT.1358 525, BT.1700 NTSC, SMPTE 170M
Аудио
Идентификатор : 2
Формат : AC-3
Формат/Информация : Audio Coding 3
Расширение режима : CM (complete main)
Идентификатор кодека : A_AC3
Продолжительность : 1 ч. 18 м.
Вид битрейта : Постоянный
Битрейт : 384 Кбит/сек
Канал(ы) : 6 канала(ов)
Расположение каналов : Front: L C R, Side: L R, LFE
Частота : 48,0 КГц
Битовая глубина : 16 бит
Метод сжатия : С потерями
Размер потока : 217 Мбайт (16%)
Язык : Russian
Русское название: Морозко
Жанр: Сказка
Год выхода: 1964
Выпущено: СССР
Режиссер: Александр Роу
В ролях: Александр Хвыля, Наталья Седых, Эдуард Изотов, Инна Чурикова, Павел Павленко, Вера Алтайская, Георгий Милляр, Галина Борисова, Анатолий Кубацкий, Валентин Брылеев, Татьяна Пельтцер, Татьяна Барышева, Варвара Попова, Анастасия Зуева, Лев Потемкин
Описание: Жила-была хорошая добрая девушка Настенька. Злая мачеха заставляла ее работать, не давая продыху. Однажды она решила избавиться от падчерицы и отправила ту замерзать в зимний лес. В этих же краях жил паренек Иван. Он полюбил Настеньку, да вот только был он большим хвастуном, потому лесной колдун и превратил его в медведя. И Настеньке, и Ивану пришлось пройти через много испытаний, прежде чем соединить свои судьбы. И помог им в этом добрый волшебник - дедушка Морозко...
Качество: DVDRip - AVC
Видео: [email protected], MPEG-4 AVC, 2063kbps
Аудио: AC3, 384kbps, 6ch
Продолжительность: 01:19:52

       

Огонь, вода и... медные трубы

MediaInfo

Общее
Уникальный идентификатор : 267802330786320426241577937303761751873 (0xC978DA5159AD125CAB2F1853888E8F41)
Полное имя : D:\Razdachi\Sbornik\Skazki.Rou.1938-1975.x264.DVDRip(AVC).BEARGRIZLI\Ogon.voda.i.mednye.truby.1968.x264.DVDRip(AVC).BEARGRIZLI.mkv
Формат : Matroska
Размер файла : 1,37 Гбайт
Продолжительность : 1 ч. 20 м.
Общий поток : 2419 Кбит/сек
Программа кодирования : HandBrake 0.9.5
Библиотека кодирования : libmkv 0.6.4.1
Видео
Идентификатор : 1
Формат : AVC
Формат/Информация : Advanced Video Codec
Профиль формата : [url=mailto:[email protected]][email protected][/url]
Параметр CABAC формата : Да
Параметр ReFrames формата : 4 кадры
Идентификатор кодека : V_MPEG4/ISO/AVC
Продолжительность : 1 ч. 20 м.
Битрейт : 2030 Кбит/сек
Ширина : 688 пикс.
Высота : 384 пикс.
Соотношение сторон : 1,943
Режим частоты кадров : Переменный
Частота кадров : 25,000 кадр/сек
Цветовое пространство : YUV
Подвыборка цветности : 4:2:0
Битовая глубина : 8 бит
Тип развёртки : Прогрессивная
Бит/(Пиксели*Кадры) : 0.307
Размер потока : 1,12 Гбайт (82%)
Библиотека кодирования : x264 core 112
Настройки программы : cabac=1 / ref=2 / deblock=1:0:0 / analyse=0x1:0x111 / me=hex / subme=6 / psy=1 / psy_rd=1.00:0.00 / mixed_ref=0 / me_range=16 / chroma_me=1 / trellis=0 / 8x8dct=0 / cqm=0 / deadzone=21,11 / fast_pskip=1 / chroma_qp_offset=-2 / threads=6 / sliced_threads=0 / nr=0 / decimate=1 / interlaced=0 / constrained_intra=0 / bframes=2 / b_pyramid=2 / b_adapt=1 / b_bias=0 / direct=1 / weightb=0 / open_gop=0 / weightp=2 / keyint=250 / keyint_min=24 / scenecut=40 / intra_refresh=0 / rc_lookahead=40 / rc=2pass / mbtree=1 / bitrate=2030 / ratetol=1.0 / qcomp=0.60 / qpmin=3 / qpmax=51 / qpstep=4 / cplxblur=20.0 / qblur=0.5 / ip_ratio=1.40 / aq=1:1.00
Язык : English
Основные цвета : BT.601-6 525, BT.1358 525, BT.1700 NTSC, SMPTE 170M
Характеристики трансфера : BT.709-5, BT.1361
Коэффициенты матрицы : BT.601-6 525, BT.1358 525, BT.1700 NTSC, SMPTE 170M
Аудио
Идентификатор : 2
Формат : AC-3
Формат/Информация : Audio Coding 3
Расширение режима : CM (complete main)
Идентификатор кодека : A_AC3
Продолжительность : 1 ч. 20 м.
Вид битрейта : Постоянный
Битрейт : 384 Кбит/сек
Канал(ы) : 6 канала(ов)
Расположение каналов : Front: L C R, Side: L R, LFE
Частота : 48,0 КГц
Битовая глубина : 16 бит
Метод сжатия : С потерями
Размер потока : 222 Мбайт (16%)
Язык : Russian
Русское название: Огонь, вода и... медные трубы
Жанр: Сказка
Год выхода: 1968
Выпущено: СССР
Режиссер: Александр Роу
В ролях: Алексей Катышев, Наталья Седых, Михаил Пуговкин, Георгий Милляр, Алексей Смирнов, Вера Алтайская, Инга Будкевич, Зоя Василькова, Григоре Григориу, Анастасия Зуева, Ксения Козьмина, Маргарита Корабельникова, Лидия Королёва, Муза Крепкогорская, Анатолий Кубацкий, Тамара Носова, Павел Павленко, Лев Потемкин, Татьяна Струкова, Андрей Файт, Клавдия Хабарова, Леонид Харитонов, Александр Хвыля, Аркадий Цинман
Описание: Есть такая поговорка: "пройти огонь, воду и медные трубы". Это означает - пройти жизненные испытания, набраться ума-разума, повидать в жизни всякое, закалить свою волю. Герой фильма Вася как-то отправился в лес, чтобы жечь уголь. И там, на полянке, ему повстречалась Аленушка, которая пасла своего козленка. Молодые люди влюбились друг в друга с первого взгляда. Но слуги Кащея Бессмертного похитили девушку прямо на глазах у Васи. В поисках возлюбленной Вася в буквальном смысле проходит сквозь огонь и воду. Но труднее всего устоять перед медными трубами, перед сверкающим сиянием славы…
Качество: DVDRip - AVC
Видео: 688х[email protected], MPEG-4 AVC, 2030kbps
Аудио: AC3, 384kbps, 6ch
Продолжительность: 01:20:53

       

Варвара-Краса, длинная коса

MediaInfo

Общее
Уникальный идентификатор : 51033770312419874513008591296721102608 (0x2664BF23ED8DFD86B03EA38165DCA710)
Полное имя : D:\Razdachi\Sbornik\Skazki.Rou.1938-1975.x264.DVDRip(AVC).BEARGRIZLI\Varvara.Krasa.dlinnaja.kosa.1969.x264.DVDRip(AVC).BEARGRIZLI.mkv
Формат : Matroska
Размер файла : 1,37 Гбайт
Продолжительность : 1 ч. 20 м.
Общий поток : 2439 Кбит/сек
Программа кодирования : HandBrake 0.9.5
Библиотека кодирования : libmkv 0.6.4.1
Видео
Идентификатор : 1
Формат : AVC
Формат/Информация : Advanced Video Codec
Профиль формата : [url=mailto:[email protected]][email protected][/url]
Параметр CABAC формата : Да
Параметр ReFrames формата : 4 кадры
Параметры GOP формата : N=1
Идентификатор кодека : V_MPEG4/ISO/AVC
Продолжительность : 1 ч. 20 м.
Битрейт : 2050 Кбит/сек
Ширина : 720 пикс.
Высота : 480 пикс.
Соотношение сторон : 2,2:1
Режим частоты кадров : Переменный
Частота кадров : 25,000 кадр/сек
Стандарт вещания : NTSC
Цветовое пространство : YUV
Подвыборка цветности : 4:2:0
Битовая глубина : 8 бит
Тип развёртки : Прогрессивная
Бит/(Пиксели*Кадры) : 0.237
Размер потока : 1,13 Гбайт (82%)
Библиотека кодирования : x264 core 112
Настройки программы : cabac=1 / ref=2 / deblock=1:0:0 / analyse=0x1:0x111 / me=hex / subme=6 / psy=1 / psy_rd=1.00:0.00 / mixed_ref=0 / me_range=16 / chroma_me=1 / trellis=0 / 8x8dct=0 / cqm=0 / deadzone=21,11 / fast_pskip=1 / chroma_qp_offset=-2 / threads=6 / sliced_threads=0 / nr=0 / decimate=1 / interlaced=0 / constrained_intra=0 / bframes=2 / b_pyramid=2 / b_adapt=1 / b_bias=0 / direct=1 / weightb=0 / open_gop=0 / weightp=2 / keyint=250 / keyint_min=25 / scenecut=40 / intra_refresh=0 / rc_lookahead=40 / rc=2pass / mbtree=1 / bitrate=2050 / ratetol=1.0 / qcomp=0.60 / qpmin=3 / qpmax=51 / qpstep=4 / cplxblur=20.0 / qblur=0.5 / ip_ratio=1.40 / aq=1:1.00
Язык : English
Основные цвета : BT.601-6 525, BT.1358 525, BT.1700 NTSC, SMPTE 170M
Характеристики трансфера : BT.709-5, BT.1361
Коэффициенты матрицы : BT.601-6 525, BT.1358 525, BT.1700 NTSC, SMPTE 170M
Аудио
Идентификатор : 2
Формат : AC-3
Формат/Информация : Audio Coding 3
Расширение режима : CM (complete main)
Идентификатор кодека : A_AC3
Продолжительность : 1 ч. 20 м.
Вид битрейта : Постоянный
Битрейт : 384 Кбит/сек
Канал(ы) : 6 канала(ов)
Расположение каналов : Front: L C R, Side: L R, LFE
Частота : 48,0 КГц
Битовая глубина : 16 бит
Метод сжатия : С потерями
Размер потока : 221 Мбайт (16%)
Язык : Russian
Русское название: Варвара-Краса, длинная коса
Жанр: Сказка
Год выхода: 1969
Выпущено: СССР
Режиссер: Александр Роу
В ролях: Михаил Пуговкин, Георгий Милляр, Анатолий Кубацкий, Лидия Королева, Алексей Катышев, Сергей Николаев, Татьяна Клюева, Варвара Попова, Александр Хвыля, Борис Сичкин, Валентина Ананьина, Вера Петрова, Анастасия Зуева, Лев Потемкин
Описание: Жил да был царь Еремей. Отправился он в годовой поход, чтобы составить опись своего царства-государства. Наклонился он как-то к колодцу напиться, но тут его и схватил подводный царь Чудо - Юдо. Да потребовал выкуп за освобождение - такой, о чем Еремей не ведал и не гадал, что оно есть в его царстве. Царь согласился, еще не зная, что в его отсутствие царица родила ему сына. Фильм рассказывает о том, как несмотря на всевозможные коварства и интриги, Андрей рыбацкий сын и Варвара повстречались и полюбили друг друга, как царю Еремею пришлось краснеть за своего ленивого и глупого наследника, и как в конце концов все закончилось хорошо. В этой киносказке много замечательных приключений, волшебных превращений, веселого настроения...
Качество: DVDRip - AVC
Видео: [email protected], MPEG-4 AVC, 2050kbps
Аудио: AC3, 384kbps, 6ch
Продолжительность: 01:20:18

       

Финист-Ясный Сокол

MediaInfo

Общее
Уникальный идентификатор : 32088462074633006621558231319505666415 (0x18240353D45B8714FC22D43B5BF6016F)
Полное имя : D:\Razdachi\Sbornik\Skazki.Rou.1938-1975.x264.DVDRip(AVC).BEARGRIZLI\Finist.jasnyy.sokol.1975.x264.DVDRip(AVC).BEARGRIZLI.mkv
Формат : Matroska
Размер файла : 1,37 Гбайт
Продолжительность : 1 ч. 14 м.
Общий поток : 2617 Кбит/сек
Программа кодирования : HandBrake 0.9.5
Библиотека кодирования : libmkv 0.6.4.1
Видео
Идентификатор : 1
Формат : AVC
Формат/Информация : Advanced Video Codec
Профиль формата : [url=mailto:[email protected]][email protected][/url]
Параметр CABAC формата : Да
Параметр ReFrames формата : 4 кадры
Параметры GOP формата : M=1, N=2
Идентификатор кодека : V_MPEG4/ISO/AVC
Продолжительность : 1 ч. 14 м.
Битрейт : 2228 Кбит/сек
Ширина : 704 пикс.
Высота : 368 пикс.
Соотношение сторон : 2,043
Режим частоты кадров : Переменный
Частота кадров : 25,000 кадр/сек
Цветовое пространство : YUV
Подвыборка цветности : 4:2:0
Битовая глубина : 8 бит
Тип развёртки : Прогрессивная
Бит/(Пиксели*Кадры) : 0.344
Размер потока : 1,14 Гбайт (83%)
Библиотека кодирования : x264 core 112
Настройки программы : cabac=1 / ref=2 / deblock=1:0:0 / analyse=0x1:0x111 / me=hex / subme=6 / psy=1 / psy_rd=1.00:0.00 / mixed_ref=0 / me_range=16 / chroma_me=1 / trellis=0 / 8x8dct=0 / cqm=0 / deadzone=21,11 / fast_pskip=1 / chroma_qp_offset=-2 / threads=6 / sliced_threads=0 / nr=0 / decimate=1 / interlaced=0 / constrained_intra=0 / bframes=2 / b_pyramid=2 / b_adapt=1 / b_bias=0 / direct=1 / weightb=0 / open_gop=0 / weightp=2 / keyint=250 / keyint_min=25 / scenecut=40 / intra_refresh=0 / rc_lookahead=40 / rc=2pass / mbtree=1 / bitrate=2228 / ratetol=1.0 / qcomp=0.60 / qpmin=3 / qpmax=51 / qpstep=4 / cplxblur=20.0 / qblur=0.5 / ip_ratio=1.40 / aq=1:1.00
Язык : English
Основные цвета : BT.601-6 525, BT.1358 525, BT.1700 NTSC, SMPTE 170M
Характеристики трансфера : BT.709-5, BT.1361
Коэффициенты матрицы : BT.601-6 525, BT.1358 525, BT.1700 NTSC, SMPTE 170M
Аудио
Идентификатор : 2
Формат : AC-3
Формат/Информация : Audio Coding 3
Расширение режима : CM (complete main)
Идентификатор кодека : A_AC3
Продолжительность : 1 ч. 14 м.
Вид битрейта : Постоянный
Битрейт : 384 Кбит/сек
Канал(ы) : 6 канала(ов)
Расположение каналов : Front: L C R, Side: L R, LFE
Частота : 48,0 КГц
Битовая глубина : 16 бит
Метод сжатия : С потерями
Размер потока : 206 Мбайт (15%)
Язык : Russian
Русское название: Финист-Ясный Сокол
Жанр: Сказка
Год выхода: 1975
Выпущено: СССР
Режиссер: Геннадий Васильев, Александр Роу
В ролях: Вячеслав Воскресенский, Михаил Пуговкин, Людмила Хитяева, Светлана Орлова, Георгий Милляр, Георгий Вицин, Михаил Кононов, Гликерия Богданова-Чеснокова, Мария Барабанова, Анна Строганова, Алексей Смирнов, Марк Перцовский, Лев Потемкин
Описание: Жил да был на земле храбрый и добрый богатырь, по прозванию Финист - Ясный Сокол. Славился он своей силой, отвагой и отзывчивым сердцем. Но напал на русскую землю злой враг Картаус. И превратил он богатыря в чудище лесное, заколдовал с условием, что вновь станет Финист человеком, если полюбит его в облике чудища прекрасная девушка Аленушка. "... Про былое с небылицею, да про молодца с девицею. Про любовь большую, светлую, про отвагу богатырскую, да про нашу землю добрую, что родит героев-соколов..."
Качество: DVDRip - AVC
Видео: 704х[email protected], MPEG-4 AVC, 2228kbps
Аудио: AC3, 384kbps, 6ch
Продолжительность: 01:14:50

       
Скриншоты:        
       
Rip by BEARGRIZLI
Other forum [Profile] [PM]
Display posts from previous:    
Reply to topic

The time now is: Today 18:30

All times are GMT + 3 Hours



You cannot post new topics in this forum
You cannot reply to topics in this forum
You cannot edit your posts in this forum
You cannot delete your posts in this forum
You cannot vote in polls in this forum
You cannot attach files in this forum
You cannot download files in this forum