Today is a free download without charge Download

Приключения Буратино (Леонид Нечаев) (Комедия, Семейный, Мьюзикл, 1975) DVDRip

Reply to topic
 
Author
Message

Omen ®

Longevity: 8 years 7 months

Posts: 181087

Торрент-статистика

Post 01-Jun-2013 07:24

[Quote]

Приключения Буратино - Русское название: Приключения Буратино
Год выпуска: 1975
Премьера фильма: 1 января 1976
Жанр: Комедия, Семейный, Мьюзикл
Продолжительность: 01:05:15 + 01:08:09
Режиссер: Леонид Нечаев
Актеры: Дима Иосифов, Таня Проценко, Роман Столкарц, Томас Аугустинас, Григорий Светлорусов, Николай Гринько, Юрий Катин-Ярцев, Рина Зелёная, Владимир Этуш, Ролан Быков, Елена Санаева, Владимир Басов, Баадур Цуладзе, Валентин Букин
Описание фильма:
Очень увлекательный двухсерийный советский музыкальный фильм, снятый по мотивам сказки А. Н. Толстого.
Старый мастер-шарманщик по имени Папа Карло, чтобы хоть как-то разнообразить свою довольно скучную жизнь, вырезает из обыкновенного полена забавного деревянного мальчика, которому дает имя Буратино! Деревянный мальчик оживает и становится практически таким же как и обычные дети: веселым, шумным, дерзким, любознательным и очень доверчивым. Однако прежде чем Буратино станет настоящим человеком, ему придется пройти через множество самых разнообразных приключений и испытаний.
В своих странствиях, Буратино встретит множество верных друзей, побывает в плену у злобного Карабаса Барабаса, познакомиться с хитрой парочкой в лице Лисы Алисы и Кота Базилио, которые смогут заманить его в необычную Страну Дураков.
Однако, несмотря ни на что, Буратино, благодаря своей находчивости и смелости, а также помощи своих новых друзей, с легкостью выкручивается из любой, даже самой сложной ситуации. А благодаря доброй Черепахе Тортилле, Буратино становится обладателем волшебного Золотого Ключика, который отпирает секретную дверь в каморке у Папы Карло. Интересно, куда же она приведет?

Видеокодек: Xvid
Битрейт видео: ~2 696 Kbps, 25fps
Размер кадра: 720x576, 4:3
Качество видео: DVDRip
Аудиокодек: AC3 5.1
Битрейт аудио: 192kbps, 48000Hz, 6ch

Знаете ли вы что ...

- Роль черепахи Тортилы Нечаев предлагал поначалу Фаине Раневской, но та, едва услышав, что фильм сниматься будет в Белоруссии, заявила, что согласна сниматься, только если съёмки будут проходить в подъезде её дома.
- Диму Иосифова (Буратино) режиссёр Нечаев случайно увидел на катке. Заработная плата юного актера составляла 100 рублей в месяц.
- Таню Проценко (Мальвина) помощница режиссёра нашла в поезде. В отличие от других детей-актёров, она была москвичка (все остальные дети — из городов Белоруссии).
- Ролан Быков (кот Базилио) и Елена Санаева (лиса Алиса) в то время были муж и жена. Также это первый фильм, где они снялись вместе.

MediaInfo

General
Complete name : D:\_My Releases\Приключения Буратино\Buratino_(1975)_DVDrip\Buratino_(1975)_DVDrip_1.avi
Format : AVI
Format/Info : Audio Video Interleave
File size : 1.32 GiB
Duration : 1h 5mn
Overall bit rate : 2 898 Kbps
Video
ID : 0
Format : MPEG-4 Visual
Format profile : Advanced [email protected]
Format settings, BVOP : 2
Format settings, QPel : No
Format settings, GMC : No warppoints
Format settings, Matrix : Default (H.263)
Codec ID : XVID
Codec ID/Hint : XviD
Duration : 1h 5mn
Bit rate : 2 696 Kbps
Width : 720 pixels
Height : 576 pixels
Display aspect ratio : 4:3
Frame rate : 25.000 fps
Standard : PAL
Color space : YUV
Chroma subsampling : 4:2:0
Bit depth : 8 bits
Scan type : Progressive
Compression mode : Lossy
Bits/(Pixel*Frame) : 0.260
Stream size : 1.23 GiB (93%)
Writing library : XviD 1.2.1 (UTC 2008-12-04)
Audio
ID : 1
Format : AC-3
Format/Info : Audio Coding 3
Mode extension : CM (complete main)
Codec ID : 2000
Duration : 1h 5mn
Source duration : 1h 5mn
Bit rate mode : Constant
Bit rate : 192 Kbps
Channel(s) : 6 channels
Channel positions : Front: L C R, Side: L R, LFE
Sampling rate : 48.0 KHz
Bit depth : 16 bits
Compression mode : Lossy
Stream size : 89.6 MiB (7%)
Alignment : Aligned on interleaves
Interleave, duration : 40 ms (1.00 video frame)
General
Complete name : D:\_My Releases\Приключения Буратино\Buratino_(1975)_DVDrip\Buratino_(1975)_DVDrip_2.avi
Format : AVI
Format/Info : Audio Video Interleave
File size : 1.28 GiB
Duration : 1h 8mn
Overall bit rate : 2 689 Kbps
Video
ID : 0
Format : MPEG-4 Visual
Format profile : Advanced [email protected]
Format settings, BVOP : 2
Format settings, QPel : No
Format settings, GMC : No warppoints
Format settings, Matrix : Default (H.263)
Codec ID : XVID
Codec ID/Hint : XviD
Duration : 1h 8mn
Bit rate : 2 487 Kbps
Width : 720 pixels
Height : 576 pixels
Display aspect ratio : 4:3
Frame rate : 25.000 fps
Standard : PAL
Color space : YUV
Chroma subsampling : 4:2:0
Bit depth : 8 bits
Scan type : Progressive
Compression mode : Lossy
Bits/(Pixel*Frame) : 0.240
Stream size : 1.18 GiB (92%)
Writing library : XviD 1.2.1 (UTC 2008-12-04)
Audio
ID : 1
Format : AC-3
Format/Info : Audio Coding 3
Mode extension : CM (complete main)
Codec ID : 2000
Duration : 1h 8mn
Source duration : 1h 8mn
Bit rate mode : Constant
Bit rate : 192 Kbps
Channel(s) : 6 channels
Channel positions : Front: L C R, Side: L R, LFE
Sampling rate : 48.0 KHz
Bit depth : 16 bits
Compression mode : Lossy
Stream size : 93.6 MiB (7%)
Alignment : Aligned on interleaves
Interleave, duration : 40 ms (1.00 video frame)
Скриншоты:          
         
Other forum [Profile] [PM]
Similar theme
Forum Topic Author Torrent Replies Last Post
./templates/default/images/folder_dl.gif Фильмы 2001-2010 Невероятная жизнь Уолтера Митти / The Secret Life of Walter Mitty (Бен Стиллер / Ben Stiller, 2013, Приключения, мелодрама, драма, комедия, фэнтези) WEB-DL [H.264/1080p-LQ] Omen
1 | 0

0 | 1173

36

2014-03-26 22:37
Omen Latest
./templates/default/images/folder_dl.gif Зарубежное кино Изгой-один: Звёздные войны. Истории / Rogue One: A Star Wars Story (Гарет Эдвардс) [2016 г., фантастика, боевик, приключения, BDRip 1080p] DUB | Чистый звук Theseus
1 | 0

0 | 8084

8

2017-03-22 11:05
Theseus Latest
./templates/default/images/folder_dl.gif Зарубежные сериалы Игра престолов / Game of Thrones / Сезон: 8 / Серии: 1-6 из 6 (Алан Тейлор / Alan Taylor) [2019, фэнтези, боевик, драма, мелодрама, приключения, WEB-DL 1080p] MVO (Amedia / Новамедиа) + Original + Sub (Rus, Eng) ¶ }{@R0N
1 | 0

0 | 2661

0

2019-05-20 12:02
}{@R0N Latest
Display posts from previous:    
Reply to topic

The time now is: Today 15:54

All times are GMT + 3 Hours



You cannot post new topics in this forum
You cannot reply to topics in this forum
You cannot edit your posts in this forum
You cannot delete your posts in this forum
You cannot vote in polls in this forum
You cannot attach files in this forum
You cannot download files in this forum